Browse Collections Artists Sources   Search Dates

Add Show    List Management    Help


Grateful Dead 01/18/79
Providence Civic Center, Providence, RI
Comments Add Comment    Source Collectors    Add to Collection    Add to Want List    History
Source # 100210 Other Sources
Entered by Matt Vernon
Checksums ffp , flac-md5
Disc Counts 0 / 0
Media Size
Date Circulated
Date Added
07/20/2009
07/19/2009
Source Summary flac24; Recording Info: (FOB) Nakamichi 300/CP1 -> Cassette Master (Maxell UDXLI/Dolby B); Transfer Info: Cassette Master (Nakamichi DR-1/Dolby B) -> Sound Devices 744T (24bit/96k) -> Samplitude Professional v10.21 -> FLAC/24; All Transfers and Mastering By Charlie Miller; Recorded by Steve Rolfe 
  Archive
Source Information - Download Text | Download Zip
Grateful Dead - January 18, 1979
Civic Center - Providence, RI
**THIS IS A 24BIT SOURCE**

Recording Info:
(FOB) Nakamichi 300/CP1 -> Cassette Master (Maxell UDXLI/Dolby B)

Transfer Info:
Cassette Master (Nakamichi DR-1/Dolby B) -> Sound Devices 744T (24bit/96k) ->
Samplitude Professional v10.21 -> FLAC/24
(1 DVD FLAC)

All Transfers and Mastering By Charlie Miller
[email protected]arthlink.net
July 18, 2009

Patch Info:
(FOB) Sennheiser 441 -> Cassette Master -> Dat -> CD (shnid=13058) supplies:
The Other One (9:15 - 10:29) (11:24 - 11:34)

Notes:
-- Thanks to Steve Rolfe for lending me his masters
-- Thanks to Joe B. Jones for his help pitch correcting the patch source

Set 1:
s1t01 - Tuning
s1t02 - Promised Land
s1t03 - They Love Each Other
s1t04 - Mama Tried ->
s1t05 - Mexicali Blues
s1t06 - Friend Of The Devil
s1t07 - Cassidy
s1t08 - Jack-A-Roe
s1t09 - Looks Like Rain
s1t10 - Ramble On Rose
s1t11 - New Minglewood Blues
s1t12 - Deal

Set 2:
s2t01 - Tuning
s2t02 - I Need A Miracle ->
s2t03 - Bertha ->
s2t04 - Good Lovin'
s2t05 - From The Heart Of Me
s2t06 - Ship Of Fools
s2t07 - He's Gone ->
s2t08 - Truckin' ->
s2t09 - The Other One ->
s2t10 - Wharf Rat ->
s2t11 - Around And Around

Encore:
s2t12 - U.S. Blues


SHNTOOL OUTPUT:
    length     expanded size   cdr  WAVE problems filename
     1:14.980      43188356    cxx   --   -----   gd79-01-18s1t01.wav
     5:17.940     183133376    cxx   --   -----   gd79-01-18s1t02.wav
     8:22.184     289257878    cxx   --   -----   gd79-01-18s1t03.wav
     2:47.638      96559490    cxx   --   -----   gd79-01-18s1t04.wav
     5:17.282     182754296    cxx   --   -----   gd79-01-18s1t05.wav
    10:04.559     348225914    cxx   --   -----   gd79-01-18s1t06.wav
     5:59.327     206972666    cxx   --   -----   gd79-01-18s1t07.wav
     6:05.495     210524978    cxx   --   -----   gd79-01-18s1t08.wav
     7:33.077     260972228    cxx   --   -----   gd79-01-18s1t09.wav
     9:53.614     341921912    cxx   --   -----   gd79-01-18s1t10.wav
     5:56.872     205558160    cxx   --   -----   gd79-01-18s1t11.wav
     7:23.313     255348176    cxx   --   -----   gd79-01-18s1t12.wav
     2:03.952      71396390    cxx   --   -----   gd79-01-18s2t01.wav
     6:07.365     211602398    cxx   --   -----   gd79-01-18s2t02.wav
     6:50.161     236252672    cxx   --   -----   gd79-01-18s2t03.wav
     7:44.613     267617030    cxx   --   -----   gd79-01-18s2t04.wav
     5:15.954     181989458    cxx   --   -----   gd79-01-18s2t05.wav
    10:04.169     348001214    cxx   --   -----   gd79-01-18s2t06.wav
    12:58.759     448564994    cxx   --   -----   gd79-01-18s2t07.wav
     8:28.263     292759766    cxx   --   -----   gd79-01-18s2t08.wav
    12:40.544     438073544    cxx   --   -----   gd79-01-18s2t09.wav
    10:07.684     350025800    cxx   --   -----   gd79-01-18s2t10.wav
     8:26.661     291836888    cxx   --   -----   gd79-01-18s2t11.wav
     5:41.837     196897892    cxx   --   -----   gd79-01-18s2t12.wav
   172:26.240    5959435476 B                     (totals for 24 files)
Show Checksums
ffp
gd79-01-18s1t01.flac:eb74e8c964a590dc9b7fb9baa14c1c67
gd79-01-18s1t02.flac:83a6dc20d25df34a10dac1b1668e261b
gd79-01-18s1t03.flac:32adf783164ddb9ae0608e2f41b7eec2
gd79-01-18s1t04.flac:824da6dcb2c887fca1771d773ba62ba3
gd79-01-18s1t05.flac:13872586af649d03f8a098ea9b833e7e
gd79-01-18s1t06.flac:fb37eca9bcb6c565a71c08f6f440f1b7
gd79-01-18s1t07.flac:fc00d2b68a49ad1148e791a4466d0e5f
gd79-01-18s1t08.flac:7524b77848a2186e991157dd60ce173a
gd79-01-18s1t09.flac:f34489b68dc5d38b92dae42de88acac9
gd79-01-18s1t10.flac:139d357eb3a06057a6c10c36ad68eafe
gd79-01-18s1t11.flac:cb9191f095c5838141c602924980f49a
gd79-01-18s1t12.flac:7d8ce159bb083cffdf344346e8707425
gd79-01-18s2t01.flac:1b67dd9a453386f0ef012b2582a97c4b
gd79-01-18s2t02.flac:6db940a075e9cb91fc2951b2d64bd11d
gd79-01-18s2t03.flac:d2c56e7d4d6b5790909d081ea167633c
gd79-01-18s2t04.flac:fbfa639888156e6e9c4ebbadbf6d2cae
gd79-01-18s2t05.flac:131444a235bf9a34465b9b86b35ed2f1
gd79-01-18s2t06.flac:beac2007cbd4d5730fc09805da7c829a
gd79-01-18s2t07.flac:d6d688cd89e5150bc8587af5d16809e4
gd79-01-18s2t08.flac:82cdb5c1e85757f70913b932bb65f12d
gd79-01-18s2t09.flac:74e3a611635c06765cae4b3c26c4e35e
gd79-01-18s2t10.flac:8da77b35904d9797e77530a09aa5dade
gd79-01-18s2t11.flac:b5deff0eaea7ae0572de22eb87256873
gd79-01-18s2t12.flac:90bbb76b235a846a7ef9212da45cb394
flac-md5
9e644c01d6c4e59e262ca303e0d33008 *gd79-01-18s1t01.flac
b5c56f28e2fdb59774609f92d572b6c2 *gd79-01-18s1t02.flac
6bbada86a6c755ce056870be7868380e *gd79-01-18s1t03.flac
10c37bf56075a403a7e7574b4bea55c0 *gd79-01-18s1t04.flac
914df0f075e1d5c1b5ef8b2bf1d0978b *gd79-01-18s1t05.flac
e39988a29ee6d5c3a5db676e234c484d *gd79-01-18s1t06.flac
31ab9cb621494e5049790f983b480434 *gd79-01-18s1t07.flac
f4fc948f23020fcf170a266bde648e0b *gd79-01-18s1t08.flac
588f8e33c0de898649d875402962f0b5 *gd79-01-18s1t09.flac
4146d99e3ca428bd5af89c4c70c22df0 *gd79-01-18s1t10.flac
eab342d87a71c0cf31c219358145e217 *gd79-01-18s1t11.flac
bb77589522b41c1a6204eb1f8deb9c69 *gd79-01-18s1t12.flac
d42837501bdaa127a8da3f7c92bef954 *gd79-01-18s2t01.flac
3e4e9a79f20e1133c24d0331e5cd0be9 *gd79-01-18s2t02.flac
a4951ebc3f4ae7d60180a3f450afed80 *gd79-01-18s2t03.flac
aafa8cf9406d005c15385223e911cffa *gd79-01-18s2t04.flac
d72a1c79d108ff594548f9caa51844c9 *gd79-01-18s2t05.flac
d15ad2274d416781e43bf070cf9a4285 *gd79-01-18s2t06.flac
e873215db5a0c2d8d53268e16704f378 *gd79-01-18s2t07.flac
e9844cc71198250944b23daf47a1087c *gd79-01-18s2t08.flac
f68a4d8a807b773149f4b73635884ddf *gd79-01-18s2t09.flac
21ff5298abb1703ee426ff33a3bbefe3 *gd79-01-18s2t10.flac
e837edc7be2a019b9eb67d3714ebef6a *gd79-01-18s2t11.flac
3c9f8a1b68078d166401e70a48217bb7 *gd79-01-18s2t12.flac

Comments
Add Comment
Other Sources (comments)
Source: FOB AUD Master... (0) Updated lineage: Recording... (1) flac16; Recording... (0) flac16; Recording... (2) flac16; SBD ->... (0) flac24; FOB AUD: AKG... (0) flac16; FOB AUD: AKG... (0)
Date User Comment