Browse Collections Artists Sources   Search Dates

Add Show    List Management    Help


Grateful Dead 05/13/73
Iowa State Fairgrounds, Des Moines, IA
Comments Add Comment    Source Collectors    Add to Collection    Add to Want List    History
Source # 100239 Other Sources
Entered by Matt Vernon
Checksums ffp , flac-md5
Disc Counts 1 / 1
Media Size
Date Circulated
Date Added
07/21/2009
07/21/2009
Source Summary flac16; Set 3 Recording Info:SBD -> Master Reel -> Dat -> CD -> EAC -> FLAC; EAC -> FLAC conversion By Charlie Miller; fixed version now in circulation 
  Archive
Source Information - Download Text | Download Zip
Grateful Dead - May 13, 1973
Iowa State Fairgrounds - Des Moines, IA

Recording Info:
SBD -> Master Reel -> Dat -> CD -> EAC -> FLAC
(1 Disc Audio / 1 Disc FLAC)

EAC -> FLAC conversion By Charlie Miller
[email protected]
May 16, 2009

Notes:
-- Thanks to Matt Smith for the disc
-- More from this source to follow when I find my Dat

Set 3:
d4t01 - He's Gone ->
d4t02 - Truckin' ->
d4t03 - The Other One ->
d4t04 - Eyes Of The World ->
d4t05 - China Doll


SHNTOOL OUTPUT:
    length     expanded size   cdr  WAVE problems filename
    14:07.08      149429660    ---   --   -----   gd73-05-13d4t01.wav
     8:31.51       90260396    ---   --   -----   gd73-05-13d4t02.wav
    23:39.47      250422188    ---   --   -----   gd73-05-13d4t03.wav
    15:59.39      169259372    ---   --   -----   gd73-05-13d4t04.wav
     5:38.44       59726732    ---   --   -----   gd73-05-13d4t05.wav
    67:56.39      719098348 B                     (totals for 5 files)

Show Checksums
ffp
gd73-05-13d4t01.flac:7fdc6022535fe80dcd72033e67aac9e4
gd73-05-13d4t02.flac:54035df8a050f47fc0d7e6b188bbe1d9
gd73-05-13d4t03.flac:61ed6d98a6b2c2c235236c29a0293ed9
gd73-05-13d4t04.flac:7f62ffb6fd22e9610a1469ec8f9967fa
gd73-05-13d4t05.flac:f20026e4cf1c59d8945fc5cb26815fac
flac-md5
309396add7525294623a4c992308d9ef *gd73-05-13d4t01.flac
2d5bcab9b5f3a06393eb57d966d84062 *gd73-05-13d4t02.flac
e1641d3f88028ece83f24f7fa7530f75 *gd73-05-13d4t03.flac
e5ca237e64b0d603cd6a0e0955d08694 *gd73-05-13d4t04.flac
250900641f5e919f1002bdf1a07cc0fc *gd73-05-13d4t05.flac

Comments
Add Comment
Other Sources (comments)
Complete; d1,2,3,5-SBD : MR... (4) Source:... (1) flac16;... (0) flac16; Set 3... (1)
Date User Comment