Browse Collections Artists Sources   Search Dates

Add Show    List Management    Help


Grateful Dead 12/05/71
Felt Forum, Madison Square Garden, New York, NY
Comments Add Comment    Source Collectors    Add to Collection    Add to Want List    History
Source # 100316 Other Sources
Entered by dr.unclear
Checksums flac-md5 , ffp
Disc Counts 2 / 3
Media Size
Date Circulated
Date Added
07/25/2009
07/25/2009
Source Summary flac16; FM -> Master Reel -> CD -> EAC -> FLAC. This is a complete show and a real nice upgrade from the so-called Pre-FM. 
  Archive
Source Information - Download Text | Download Zip
Grateful Dead - December 5, 1971
Felt Forum - New York, NY

Recorded by Don Rohde on unknown Reel to Reel
FM -> Master Reel

Transfer Info:
Master Reel -> CD -> EAC -> FLAC
(3 Discs Audio / 2 Discs FLAC)

Transer MR -> EQ -> CD by Rich Michelsen

Transfer CD > EAC > FLAC by Phil Matera
Patches made by Phil Matera
[email protected]
July 25, 2009

Notes:
-- Show is complete except for *long* tuning before Dark Star
-- Missing pieces repaired with the circulating (so-called) Pre-FM:
-- Two second splice at 0:42 into "Bertha".
-- Two second splice on "You Win Again" starting at 2:20
-- Spliced from 3:30 in "You Win Again" through to 0:28 into "Not Fade Away"
-- The show leads up to a freaky China Cat fugue.  Listen for the
-- China Cat lick in Tennessee Jed, Me and Bobby McGee and in
-- Going Down the Road at 0:20 and 2:30.


Set 1:
d1t01 - Bill Graham Introduction
d1t02 - Bertha
d1t03 - Beat It On Down The Line
d1t04 - Big Boss Man
d1t05 - song of spring (tuning)
d1t06 - Brown Eyed Women
d1t07 - Muddy Water
d1t08 - Jack Straw
d1t09 - Mr. Charlie
d1t10 - Tennessee Jed
d1t11 - El Paso
d1t12 - Deal
d1t13 - Playing In The Band


d2t01 - Next Time You See Me
d2t02 - Comes A Time
d2t03 - Casey Jones
d2t04 - One More Saturday Night

Set 2:
d2t05 - "#1 Hit Single!"
d2t06 - Truckin'
d2t07 - Ramble On Rose
d2t08 - It Hurts Me Too
d2t09 - Sugaree
d2t10 - Sugar Magnolia


d3t01 - Dark Star ->
d3t02 - Me and My Uncle ->
d3t03 - Dark Star ->
d3t04 - Sittin' On Top of the World
d3t05 - Me and Bobby McGee
d3t06 - Big Railroad Blues
d3t07 - Mexacali Blues
d3t08 - You Win Again
d3t09 - Not Fade Away ->
d3t10 - China Cat Freakout ->
d3t11 - Goin' Down The Road Feeling Bad ->
d3t12 - Not Fade Away



    length     expanded size    cdr  WAVE problems  fmt   ratio  filename
     1:24.25       14876444 B   ---   --   ---xx   flac  0.5868  gd71-12-05d1t01.flac
     7:32.02       79737548 B   ---   --   ---xx   flac  0.6070  gd71-12-05d1t02.flac
     4:24.22       46621388 B   ---   --   ---xx   flac  0.6089  gd71-12-05d1t03.flac
     4:55.49       52153292 B   ---   --   ---xx   flac  0.6072  gd71-12-05d1t04.flac
     0:48.51        8587196 B   ---   --   ---xx   flac  0.5499  gd71-12-05d1t05.flac
     6:34.57       69635708 B   ---   --   ---xx   flac  0.5927  gd71-12-05d1t06.flac
     5:52.55       62222204 B   ---   --   ---xx   flac  0.5944  gd71-12-05d1t07.flac
     5:45.47       60968588 B   ---   --   ---xx   flac  0.6166  gd71-12-05d1t08.flac
     5:26.63       57654620 B   ---   --   ---xx   flac  0.6159  gd71-12-05d1t09.flac
     8:07.32       85982108 B   ---   --   ---xx   flac  0.6223  gd71-12-05d1t10.flac
     6:11.11       65470316 B   ---   --   ---xx   flac  0.5998  gd71-12-05d1t11.flac
     6:42.51       71032796 B   ---   --   ---xx   flac  0.6027  gd71-12-05d1t12.flac
     6:31.40       69066524 B   ---   --   ---xx   flac  0.6244  gd71-12-05d1t13.flac
     5:26.11       57532316 B   ---   --   ---xx   flac  0.6095  gd71-12-05d2t01.flac
     8:33.46       90601436 B   ---   --   ---xx   flac  0.5992  gd71-12-05d2t02.flac
     5:30.16       58249676 B   ---   --   ---xx   flac  0.6405  gd71-12-05d2t03.flac
     4:33.68       48317180 B   ---   --   ---xx   flac  0.6472  gd71-12-05d2t04.flac
     0:31.31        5541356 B   ---   --   ---xx   flac  0.5477  gd71-12-05d2t05.flac
    11:19.36      119860316 B   ---   --   ---xx   flac  0.5936  gd71-12-05d2t06.flac
     9:17.45       98360684 B   ---   --   ---xx   flac  0.5503  gd71-12-05d2t07.flac
     7:10.03       75859100 B   ---   --   ---xx   flac  0.5715  gd71-12-05d2t08.flac
     8:39.31       91624556 B   ---   --   ---xx   flac  0.5669  gd71-12-05d2t09.flac
     7:40.62       81289868 B   ---   --   ---xx   flac  0.5820  gd71-12-05d2t10.flac
     8:05.74       85728092 B   ---   --   ---xx   flac  0.5968  gd71-12-05d3t01.flac
     2:50.62       30133868 B   ---   --   ---xx   flac  0.6017  gd71-12-05d3t02.flac
    12:23.53      131189900 B   ---   --   ---xx   flac  0.5766  gd71-12-05d3t03.flac
     6:47.15       71830124 B   ---   --   ---xx   flac  0.5568  gd71-12-05d3t04.flac
     6:53.38       72942620 B   ---   --   ---xx   flac  0.5685  gd71-12-05d3t05.flac
     4:53.06       51699356 B   ---   --   ---xx   flac  0.5848  gd71-12-05d3t06.flac
     3:19.03       35110700 B   ---   --   ---xx   flac  0.5989  gd71-12-05d3t07.flac
     3:37.21       38328236 B   ---   --   ---xx   flac  0.5795  gd71-12-05d3t08.flac
     4:43.20       49968284 B   ---   --   ---xx   flac  0.5945  gd71-12-05d3t09.flac
     1:47.33       18952460 B   ---   --   ---xx   flac  0.6095  gd71-12-05d3t10.flac
     7:41.00       81320444 B   ---   --   ---xx   flac  0.5973  gd71-12-05d3t11.flac
     2:58.27       31462748 B   ---   --   ---xx   flac  0.5926  gd71-12-05d3t12.flac
   205:01.06     2169912052 B                            0.5941  (35 files)
Show Checksums
flac-md5
4a5516cfe50f224c017795b073ed97fb *gd71-12-05d1t01.flac
7c29e9e09002fbba01a2d673378ab179 *gd71-12-05d1t02.flac
ab6beb92078e55e206eb6be9da95f479 *gd71-12-05d1t03.flac
2ca7cac05d0eb45c520cb2989880484c *gd71-12-05d1t04.flac
6f3b9ed2a3a7c489039f7ba1fb6a110f *gd71-12-05d1t05.flac
83139bfcd03cdba1bddfb007a01c7107 *gd71-12-05d1t06.flac
9ac8e025021ddf1bd733acf845a42e5d *gd71-12-05d1t07.flac
ccea0a94c4281e9ea9297368ef447c78 *gd71-12-05d1t08.flac
a2675d4abd787049f47b9b1969ae233c *gd71-12-05d1t09.flac
e291a14e9ab91a48d434095bd2b41a06 *gd71-12-05d1t10.flac
61d5306489e9d77d272938169c07afa1 *gd71-12-05d1t11.flac
d76a5d05ff6ee603d225714381227de9 *gd71-12-05d1t12.flac
aa5c277ab09a91e0661f23a1a9a16fd9 *gd71-12-05d1t13.flac
1c39a7fbc539eb7b75c3fef42bf5f8ac *gd71-12-05d2t01.flac
88ebb8a272a64ac16faa445b4888bcf4 *gd71-12-05d2t02.flac
3e8a62153c15dced0085a7615aeb687a *gd71-12-05d2t03.flac
ce7a427fc88de55bd4153078d439edc8 *gd71-12-05d2t04.flac
e3a1cd6baf7dd1f81da08b40c29a77fc *gd71-12-05d2t05.flac
7d6e13718194cf661352364a6a174469 *gd71-12-05d2t06.flac
d7fa155ab8083c9da5ecf02c24d00ce4 *gd71-12-05d2t07.flac
811ee0df4a3104ed8effccd4b9fe67aa *gd71-12-05d2t08.flac
b005846fe5b6a731bb0bbe4ef00b79c5 *gd71-12-05d2t09.flac
533ddeef429dcdeb6a2cea7d51756546 *gd71-12-05d2t10.flac
bb6fdbc44a982361426044a35f304d58 *gd71-12-05d3t01.flac
fd275333fb6d9bb43daa73c4a2000298 *gd71-12-05d3t02.flac
cb8fb4e9b6e08df404f387e6e1ebff87 *gd71-12-05d3t03.flac
6c45b12ecfe7b19803afefd1595eb3b0 *gd71-12-05d3t04.flac
6adfc5581d3d4a8555be8d12a71b46d7 *gd71-12-05d3t05.flac
1e86659b11e2f5d2ec525e09ef029fac *gd71-12-05d3t06.flac
3f6db30770396df617e94f6a3319274c *gd71-12-05d3t07.flac
e3ccd60e4738db21ae125e742dbae4e5 *gd71-12-05d3t08.flac
e75a8b26b745f17a98584caf626fee73 *gd71-12-05d3t09.flac
58c3f7c763a62011aa8a2054155af939 *gd71-12-05d3t10.flac
b0e94990fc2376e089717bbe7eb57334 *gd71-12-05d3t11.flac
df99bab92cbbddea11e0f73d2e1ce0b1 *gd71-12-05d3t12.flac
ffp
gd71-12-05d2t10.flac:8dd7e1cc8ae7d1a675757dd62edf8f64
gd71-12-05d3t01.flac:c0604ba25200ff150d332a00c3bec877
gd71-12-05d3t02.flac:90ffb7aba81491cab01b5b71024151cb
gd71-12-05d3t03.flac:2fdcad03544c4710fba00e94db2aac32
gd71-12-05d3t04.flac:8d78801876a0e121d6c196aeea2b452a
gd71-12-05d3t05.flac:b3ea43151e11e7c890d9bc8d5617c8b2
gd71-12-05d3t06.flac:b8d6f235419bdb990170ec287ad3dbfb
gd71-12-05d3t07.flac:4f55909aef23094a3c1ee28108736fd4
gd71-12-05d3t08.flac:72806167cba0593cb59ab5cf605aacc7
gd71-12-05d3t09.flac:5fa32f876f049d865ec47f7ad07ce7ed
gd71-12-05d3t10.flac:59861371ebd962e98051b30583d6bba6
gd71-12-05d3t11.flac:9ae1826ba93a75bbfbd3961144fcc219
gd71-12-05d3t12.flac:4126d7c651e24ee4f5e260bf4dd96b0b
gd71-12-05d1t01.flac:76149dbd3c389d889b1787fcc0452569
gd71-12-05d1t02.flac:d82090b52532f7aaee871a1b198a01d3
gd71-12-05d1t03.flac:8536c4febe3fcfb4ecd9823b1da2a979
gd71-12-05d1t04.flac:a3488dde0f7062511f4d2f77402be9e7
gd71-12-05d1t05.flac:9cc620e1b30863607bbae789f673bd41
gd71-12-05d1t06.flac:799a9f7111a00e0d5cef582f8b9e7ab0
gd71-12-05d1t07.flac:4b9cc323dcdacdaff43b4a0b0b4f13b1
gd71-12-05d1t08.flac:cb0edfc068cb06494a5025a186db4f08
gd71-12-05d1t09.flac:17818964a6c16aa2f93002d5750d2c17
gd71-12-05d1t10.flac:7c7fa67bcc854ece1c5fab1d90bf2a6e
gd71-12-05d1t11.flac:b289267d036b49bb86c5d3521794146d
gd71-12-05d1t12.flac:0c92b31406c19f405bc286e49b7f4dd1
gd71-12-05d1t13.flac:1ad57afbf1218d577099efcaa903c8ba
gd71-12-05d2t01.flac:efaa4b24755f1e191ab0adcc9cef404b
gd71-12-05d2t02.flac:ae8e8e7298851d2587454a19f8f93b2d
gd71-12-05d2t03.flac:013b843083087ad5262858947b0481a7
gd71-12-05d2t04.flac:eea172302800b4b7900adb39c842498c
gd71-12-05d2t05.flac:c8aa4917ca931f68887b10beb2eaa6ab
gd71-12-05d2t06.flac:36c37633e3fc12eedd2b257b87caa033
gd71-12-05d2t07.flac:9091f87db2ef8140df437d0f30322c50
gd71-12-05d2t08.flac:1f261fe3dedf10cd1912afa9927b78df
gd71-12-05d2t09.flac:33564be39dffe3fbc1778618516a5703

Comments
Add Comment
Other Sources (comments)
Updated lineage: FM > MR >... (13) Updated lineage:... (1) flac16; Recording... (0)
Date User Comment
06/09/2010 charlie miller Nice recording but the EQ is a bit off and there's a lot of radio static.