Browse Collections Artists Sources   Search Dates

Add Show    List Management    Help


Grateful Dead 08/30/80
The Spectrum, Philadelphia, PA
Comments Add Comment    Source Collectors    Add to Collection    Add to Want List    History
Source # 100392 Other Sources
Entered by Matt Vernon
Checksums ffp , flac-md5
Disc Counts 2 / 3
Media Size
Date Circulated
Date Added
08/01/2009
07/31/2009
Source Summary flac16; Recording Info: Sennheiser 421 -> Cassette Master (Sony TC-D5M/Maxell UDXLII-C90/Dolby B); Transfer Info: Cassette Master (Nakamichi DR-1/Dolby B) -> Sound Devices 744T (24bit/96k) -> Adobe Audition v1.5 -> Samplitude Professional v10.21 -> FLAC/16; Recorded By Jim Wise; All Transfers and Mastering By Charlie Miller 
  Archive
Source Information - Download Text | Download Zip
Grateful Dead - August 30, 1980
The Spectrum - Philadelphia, PA

Recording Info:
Sennheiser 421 -> Cassette Master (Sony TC-D5M/Maxell UDXLII-C90/Dolby B)

Transfer Info:
Cassette Master (Nakamichi DR-1/Dolby B) -> Sound Devices 744T (24bit/96k) ->
Adobe Audition v1.5 -> Samplitude Professional v10.21 -> FLAC/16
(3 Discs Audio / 2 Discs FLAC)

All Transfers and Mastering By Charlie Miller
[email protected]
July 31, 2009

Notes:
-- Set 2 is seamless
-- Recorded By Jim Wise
-- Thanks to Jim Wise for lending me his master cassettes
-- Thanks to Joe B. Jones for his help with the pitch correction

Set 1:
d1t01 - Tuning
d1t02 - Feel Like A Stranger
d1t03 - Peggy-O
d1t04 - Cassidy
d1t05 - Friend Of The Devil
d1t06 - New Minglewood Blues
d1t07 - Cold Rain And Snow ->
d1t08 - Looks Like Rain
d1t09 - Easy To Love You
d1t10 - Althea
d1t11 - Jack Straw

Set 2:
d2t01 - Scarlet Begonias ->
d2t02 - Fire On The Mountain
d2t03 - C C Rider
d2t04 - Ramble On Rose
d3t01 - Estimated Prophet ->
d3t02 - Eyes Of The World ->
d3t03 - Drums ->
d3t04 - Space ->
d3t05 - Not Fade Away ->
d3t06 - Black Peter ->
d3t07 - Sugar Magnolia

Encore:
d3t08 - One More Saturday Night


SHNTOOL OUTPUT:
    length     expanded size   cdr  WAVE problems filename
     2:06.36       22311116    ---   --   -----   gd80-08-30d1t01.wav
    10:13.62      108279068    ---   --   -----   gd80-08-30d1t02.wav
     7:36.51       80558396    ---   --   -----   gd80-08-30d1t03.wav
     5:33.27       58804748    ---   --   -----   gd80-08-30d1t04.wav
     8:57.70       94891484    ---   --   -----   gd80-08-30d1t05.wav
     7:09.55       75805004    ---   --   -----   gd80-08-30d1t06.wav
     6:32.68       69308780    ---   --   -----   gd80-08-30d1t07.wav
     8:15.57       87452108    ---   --   -----   gd80-08-30d1t08.wav
     4:07.71       43737836    ---   --   -----   gd80-08-30d1t09.wav
     8:48.02       93143948    ---   --   -----   gd80-08-30d1t10.wav
     6:33.35       69407564    ---   --   -----   gd80-08-30d1t11.wav
     9:52.37      104515868    ---   --   -----   gd80-08-30d2t01.wav
     9:21.63       99108620    ---   --   -----   gd80-08-30d2t02.wav
     6:41.45       70842284    ---   --   -----   gd80-08-30d2t03.wav
     8:24.02       88910348    ---   --   -----   gd80-08-30d2t04.wav
    11:45.05      124373804    ---   --   -----   gd80-08-30d3t01.wav
    11:45.05      124373804    ---   --   -----   gd80-08-30d3t02.wav
    10:23.29      109965452    ---   --   -----   gd80-08-30d3t03.wav
     4:07.54       43697852    ---   --   -----   gd80-08-30d3t04.wav
     7:49.28       82797500    ---   --   -----   gd80-08-30d3t05.wav
     8:40.32       91803308    ---   --   -----   gd80-08-30d3t06.wav
     9:23.27       99376748    ---   --   -----   gd80-08-30d3t07.wav
     4:42.62       49890668    ---   --   -----   gd80-08-30d3t08.wav
   178:53.23     1893356308 B                     (totals for 23 files)
Show Checksums
ffp
gd80-08-30d1t01.flac:8b2af793a5d7ee1a36c8e3308bc97b76
gd80-08-30d1t02.flac:4b5fdbec9d9fc472a0860a0a3c393af8
gd80-08-30d1t03.flac:a5f4aae57d76c17d8fd3b09e414bac69
gd80-08-30d1t04.flac:e85d7114c673ecbd0bbd8471dd9243e9
gd80-08-30d1t05.flac:318ef2f23806703cdf3e4b8938e58c25
gd80-08-30d1t06.flac:624b375539bd4328087ef301c9e8f1c2
gd80-08-30d1t07.flac:34ca1d7631b61dbb5045c6eadea8af56
gd80-08-30d1t08.flac:934a9f5c437673f8c984e80d23c71d2a
gd80-08-30d1t09.flac:cc043cb7dde8ab7e444eba8dfb6b9a6b
gd80-08-30d1t10.flac:d6fe6da70966cbbe2503ad9e4f0cd12f
gd80-08-30d1t11.flac:d5bd318195345745916f5a6120377921
gd80-08-30d2t01.flac:888b6a12227e2fb87d418cf2b06f0da0
gd80-08-30d2t02.flac:f63699612f8f4a647f1bd1d4a0f8e2f4
gd80-08-30d2t03.flac:d174e997349babeaae850e6a1ebfdfc0
gd80-08-30d2t04.flac:1ebccc682588217f9cd7bbd987798ed2
gd80-08-30d3t01.flac:9c9817abfc1e2ce79e08b9e7c5fbe51e
gd80-08-30d3t02.flac:e2f9563a51f87a3422b1ca0d5aedc8e9
gd80-08-30d3t03.flac:32aed7c1d44c6ff9285d4f0eb756ac3c
gd80-08-30d3t04.flac:ce9092d6b0015eaf440d70df207b555d
gd80-08-30d3t05.flac:9cc29b38b84005ee7c97b3c3e9355505
gd80-08-30d3t06.flac:244b94aac213b2727cc0348f3f42aeab
gd80-08-30d3t07.flac:9d5a37114263f8c56996c677e586ef74
gd80-08-30d3t08.flac:b13fac489448788ce7454737830f0114
flac-md5
e16bd51a69d35b69085c36f39d4b5170 *gd80-08-30d1t01.flac
3f5d256dfbfdde5c92de548970c4e2cf *gd80-08-30d1t02.flac
15d8d77c27711e2b6a89225510966520 *gd80-08-30d1t03.flac
6803475f48347bd696e61488419afda3 *gd80-08-30d1t04.flac
9f4aad6837dc50884881899bbe481b56 *gd80-08-30d1t05.flac
e7b82655a13a62f60b2cc6cc1fddbf24 *gd80-08-30d1t06.flac
f6b128039da1f2e78509601af5af8dc0 *gd80-08-30d1t07.flac
e8cc1329167b3cd822eda924dbeadfd4 *gd80-08-30d1t08.flac
693cbd2a2003506ace9b814e2e5eb9e7 *gd80-08-30d1t09.flac
929706a63996593b9cbc28480d698250 *gd80-08-30d1t10.flac
0609a7c7269de6ae7e97c2012fa7fc2e *gd80-08-30d1t11.flac
944438c043523e2ef9ccdb973ef3f4f8 *gd80-08-30d2t01.flac
435c0960fb7af7ec662f7eae8b33107d *gd80-08-30d2t02.flac
7efda9849392ce6a32f9913bb44cb9f8 *gd80-08-30d2t03.flac
eb39e35bb412ce55a772a4ec926dfe1a *gd80-08-30d2t04.flac
7615c542ca54bbe0487162663c5f2086 *gd80-08-30d3t01.flac
ece4de79960ea254dad609d23a51e271 *gd80-08-30d3t02.flac
34da62e043bdf4145adb80efd6fd93c4 *gd80-08-30d3t03.flac
d5af706df8fa3452ca97e65b50496299 *gd80-08-30d3t04.flac
c862f12d752a03919e5817462e0d68d6 *gd80-08-30d3t05.flac
4221973f3d0639d1216e19457c0ab8a2 *gd80-08-30d3t06.flac
8a2604ccdf5296f4e343edf67e3332e6 *gd80-08-30d3t07.flac
a66a4dc551f171c47904da83662c61bf *gd80-08-30d3t08.flac

Comments
Add Comment
Other Sources (comments)
2nd set only;... (3) 1st Set Only; SBD>?>CD;... (0) Recording by Jim Wise:... (0) flac16; Soundboard... (3) flac16; Nakamichi... (0) flac16; Set 1... (1) flac16; Recording... (0) flac16; First Set... (0)
Date User Comment