Browse Collections Artists Sources   Search Dates

Add Show    List Management    Help


Grateful Dead 05/10/80
Hartford Civic Center, Hartford, CT
Comments Add Comment    Source Collectors    Add to Collection    Add to Want List    History
Source # 100402 Other Sources
Entered by Matt Vernon
Checksums ffp , flac-md5
Disc Counts 2 / 3
Media Size
Date Circulated
Date Added
08/01/2009
08/01/2009
Source Summary flac16; Recording Info: (3) Nakamichi CM700 Shotguns -> Namakmichi 550 -> Cassette Master (Sony TC-D5M/Maxell UDXLII-C90/Dolby B); Transfer Info: Cassette Master (Nakamichi DR-1/Dolby B) -> Sound Devices 744T (24bit/96k) -> Adobe Audition v1.5 -> Samplitude Professional v10.21 -> FLAC/16; Recorded By Jim Wise; All Transfers and Mastering By Charlie Miller 
  Archive
Source Information - Download Text | Download Zip
Grateful Dead - May 10, 1980
Civic Center - Hartford, CT

Recording Info:
(3) Nakamichi CM700 Shotguns -> Namakmichi 550 ->
Cassette Master (Sony TC-D5M/Maxell UDXLII-C90/Dolby B)

Transfer Info:
Cassette Master (Nakamichi DR-1/Dolby B) -> Sound Devices 744T (24bit/96k) ->
Adobe Audition v1.5 -> Samplitude Professional v10.21 -> FLAC/16
(3 Discs Audio / 2 Discs FLAC)

All Transfers and Mastering By Charlie Miller
[email protected]
July 31, 2009

Patch Info:
Nakamichi 700 -> Cassette Master -> FLAC (shnid=98724) supplies:
Estimated Prophet (9:15 - 9:28)
Drums (8:41 - 8:53)

Notes:
-- Set 2 is seamless
-- Recorded By Jim Wise
-- Thanks to Jim Wise for lending me his master cassettes
-- Thanks to Joe B. Jones for his help with the pitch correction

Set 1:
d1t01 - Tuning
d1t02 - New Minglewood Blues
d1t03 - Peggy-O
d1t04 - Mexicali Blues ->
d1t05 - El Paso
d1t06 - Althea
d1t07 - Passenger
d1t08 - Far From Me
d1t09 - Lost Sailor ->
d1t10 - Saint Of Circumstance ->
d1t11 - Deal

Set 2:
d2t01 - Tuning
d2t02 - China Cat Sunflower ->
d2t03 - I Know You Rider
d2t04 - Feel Like A Stranger ->
d2t05 - Comes A Time ->
d2t06 - Estimated Prophet ->
d2t07 - He's Gone ->
d2t08 - Uncle John's Band ->
d3t01 - Drums ->
d3t02 - Space ->
d3t03 - Not Fade Away ->
d3t04 - Sugar Magnolia

Encore:
d3t05 - Alabama Getaway ->
d3t06 - One More Saturday Night


SHNTOOL OUTPUT:
    length     expanded size   cdr  WAVE problems filename
     1:21.59       14427212    ---   --   -----   gd80-05-10d1t01.wav
     7:26.11       78700316    ---   --   -----   gd80-05-10d1t02.wav
     7:23.61       78288716    ---   --   -----   gd80-05-10d1t03.wav
     4:18.14       45544172    ---   --   -----   gd80-05-10d1t04.wav
     5:50.37       61827068    ---   --   -----   gd80-05-10d1t05.wav
     9:15.00       97902044    ---   --   -----   gd80-05-10d1t06.wav
     6:10.48       65380940    ---   --   -----   gd80-05-10d1t07.wav
     4:21.40       46134524    ---   --   -----   gd80-05-10d1t08.wav
     6:54.38       73119020    ---   --   -----   gd80-05-10d1t09.wav
     5:54.14       62478572    ---   --   -----   gd80-05-10d1t10.wav
     4:57.64       52541372    ---   --   -----   gd80-05-10d1t11.wav
     0:48.16        8504876    ---   --   -----   gd80-05-10d2t01.wav
     6:37.18       70073180    ---   --   -----   gd80-05-10d2t02.wav
     9:50.27      104139548    ---   --   -----   gd80-05-10d2t03.wav
     7:46.10       82225964    ---   --   -----   gd80-05-10d2t04.wav
     8:46.51       92906396    ---   --   -----   gd80-05-10d2t05.wav
    10:44.65      113754524    ---   --   -----   gd80-05-10d2t06.wav
    14:54.44      157805132    ---   --   -----   gd80-05-10d2t07.wav
    11:24.69      120819932    ---   --   -----   gd80-05-10d2t08.wav
    10:19.31      109264556    ---   --   -----   gd80-05-10d3t01.wav
     2:22.47       25159388    ---   --   -----   gd80-05-10d3t02.wav
     7:31.05       79568204    ---   --   -----   gd80-05-10d3t03.wav
     9:15.52       98024348    ---   --   -----   gd80-05-10d3t04.wav
     4:24.73       46741340    ---   --   -----   gd80-05-10d3t05.wav
     5:03.57       53583308    ---   --   -----   gd80-05-10d3t06.wav
   173:44.51     1838914652 B                     (totals for 25 files)
Show Checksums
ffp
gd80-05-10d1t01.flac:19e5464b63e534e055122beb9075a34d
gd80-05-10d1t02.flac:19714cc195c1d66e04d737ad62190f23
gd80-05-10d1t03.flac:b4e84f71d744c27bc924e3c803d4665f
gd80-05-10d1t04.flac:b5f11252f7c2327bf9f2f45600bd6a6c
gd80-05-10d1t05.flac:b915ff0baa188765b6f73b8549d1ea80
gd80-05-10d1t06.flac:f32ea4a15277c5e8e320d4ccf181f1cd
gd80-05-10d1t07.flac:b0b6168c6733e99256e9a981e5f8bc2f
gd80-05-10d1t08.flac:894134be90191784832d83512ab0141b
gd80-05-10d1t09.flac:923b82f3d4ac4897d15210c88bd9e467
gd80-05-10d1t10.flac:2089099f2101a8f0808ce9ddfeb7afcf
gd80-05-10d1t11.flac:917c55a18618d953ddd794b3ef6aa44b
gd80-05-10d2t01.flac:3e4c71c2018651907e3d8c578acb6f60
gd80-05-10d2t02.flac:68918b6cae0a95359b891842996ecac4
gd80-05-10d2t03.flac:60e8ccc1466b2ea4a703889cfefc9658
gd80-05-10d2t04.flac:6a9139886ae97aea68b05a1fd4243ce3
gd80-05-10d2t05.flac:01eb8d0669108e332169cce550729498
gd80-05-10d2t06.flac:1f12e75115f087ace717e3a52550d2dd
gd80-05-10d2t07.flac:72623a9819f93b0c1349cc72e822bdb9
gd80-05-10d2t08.flac:02d13a068c79358005392f7304a05234
gd80-05-10d3t01.flac:b6f81c64ce4c740186466f4d4a789138
gd80-05-10d3t02.flac:8e67d06e05d30e9e171901e92193c62f
gd80-05-10d3t03.flac:109ba33ea8ab9bf9899760ce06668e89
gd80-05-10d3t04.flac:30010886b037958ea874e225ea65ddb3
gd80-05-10d3t05.flac:3dcef4fd6260c540a65fb317d3a8508c
gd80-05-10d3t06.flac:7e8f83c8ead2e668e418163d381ce66a
flac-md5
88755e029bd2cb036bc8ce727d799de8 *gd80-05-10d1t01.flac
c77c0549f65ad92bca5fb225713f1676 *gd80-05-10d1t02.flac
775414f7c567135e404f8bb08a322543 *gd80-05-10d1t03.flac
c851f9c3c64b23abdcef7ca0171eadeb *gd80-05-10d1t04.flac
1921d8501e0a5c345f1809c1b061edec *gd80-05-10d1t05.flac
e0a53f4d8c5818583c82389457b96b30 *gd80-05-10d1t06.flac
a9991cc3796eaecbbfb40947edb750b0 *gd80-05-10d1t07.flac
467939afb8acfc48125627169741688a *gd80-05-10d1t08.flac
e5d7cacdd44a8fe6942ec24af9dd588a *gd80-05-10d1t09.flac
0a22901184dc1ceb8c6ac8bf0429a4d1 *gd80-05-10d1t10.flac
183cd6cd418c522d038a73a361490df5 *gd80-05-10d1t11.flac
20531e1aea26bed30f7b902906d4e838 *gd80-05-10d2t01.flac
6b4335b8d7a472350857a953ba193e58 *gd80-05-10d2t02.flac
f0e96cdd71abf40cfcf2ed150cfb9e27 *gd80-05-10d2t03.flac
a5b857a7496f7b9f41cb1444b7c4da95 *gd80-05-10d2t04.flac
99624613a1a85ab8f4f6f442635fbd50 *gd80-05-10d2t05.flac
275c248067881209527d646fcc3fc591 *gd80-05-10d2t06.flac
3792a4c83facbd982d100491dc80c136 *gd80-05-10d2t07.flac
e999d85a117e734c1f6713409f08d9b2 *gd80-05-10d2t08.flac
7496a04d354018170d7cbbd6d6e90591 *gd80-05-10d3t01.flac
9bc5545b3d2f2c231706db5b070283b4 *gd80-05-10d3t02.flac
e42851cca80bf4db0960fdcc2eb1052f *gd80-05-10d3t03.flac
ccd120aa16100959730b4c7b8272db48 *gd80-05-10d3t04.flac
b8b43ecf099002e73d3f0f7aebf5ab6b *gd80-05-10d3t05.flac
d353a28c0b48a849229c6630ce3d38db *gd80-05-10d3t06.flac

Comments
Add Comment
Other Sources (comments)
Recording by Steve Rolfe:... (4) Recording by Steve Rolfe:... (3) flac16; Recording by... (1) flac16; Set 2 only,... (0) flac16; Recorded by... (0) flac16; Source:(FOB)... (0) flac24; AUD: 2x... (2) flac16; AUD: 2x... (2) flac16; 2 X Nak... (0) flac24; 2 X Nak... (0) flac24; Cassette... (0) flac16/48kHz;... (0)
Date User Comment