Browse Collections Artists Sources   Search Dates

Add Show    List Management    Help


Grateful Dead 04/05/89
Crisler Arena, Ann Arbor, MI
Comments Add Comment    Source Collectors    Add to Collection    Add to Want List    History
Source # 100671 Other Sources
Entered by Matt Vernon
Checksums ffp , flac-md5
Disc Counts 3 / 3
Media Size
Date Circulated
Date Added
current
08/15/2009
Source Summary flac16; Taper: Greg Holtz Source: Nakamichi CM-100 mics with CP-4 shotgun caps -> Sony D-5 Transfer: By JAZ, Master Cassettes (Maxell MX90 Metal) Tascam 112 -> Korg MR-1, @ 1bit 2.8MHz -> USB -> Korg Audio Gate Software 24bit 48KHz -> Wave Lab 5.0 w/UAD -> r8brain PRO for Sample Rate Conversion 16/44.1KHz -> Traders Little Helper flac8 
  Archive
Source Information - Download Text | Download Zip
Grateful Dead
Crisler Arena
Ann Arbor, MI
April 5th 1989

Taper: Greg Holtz

Source: Nakamichi CM-100 mics with CP-4 shotgun caps -> Sony D-5

Transfer: By JAZ, Master Cassettes (Maxell MX90 Metal) Tascam 112 -> Korg MR-1, @ 1bit 2.8MHz -> USB -> Korg Audio Gate Software 24bit 48KHz -> Wave Lab 5.0 w/UAD ->  r8brain PRO for Sample Rate Conversion 16/44.1KHz -> Traders Little Helper flac8

Set I:
1.Feel Like A Stranger->
2.Franklin's Tower
3.Minglewood Blues
4.Candyman
5.Memphis Blues
6.Far From Me
7.Dupree's Diamond Blues
8.Let It Grow->
9.U.S. Blues

Set II:
10.Samson & Delilah
11.Cumberland Blues
12.Women Are Smarter
13.Terrapin Station->
14.Drums->
15.China Doll
16.Throwing Stones->
17.Not Fade Away

Encore:
18.The Mighty Quinn

SHNTOOL:
    length     expanded size    cdr  WAVE problems  fmt   ratio  filename
    10:24.38      110163020 B   ---   --   ---xx   flac  0.5994  GD989-04-05trk01.flac
     8:29.36       89872316 B   ---   --   ---xx   flac  0.6103  GD989-04-05trk02.flac
     7:58.54       84446252 B   ---   --   ---xx   flac  0.6115  GD989-04-05trk03.flac
     7:10.51       75971996 B   ---   --   ---xx   flac  0.5787  GD989-04-05trk04.flac
     8:45.64       92760572 B   ---   --   ---xx   flac  0.6049  GD989-04-05trk05.flac
     5:22.13       56831420 B   ---   --   ---xx   flac  0.6011  GD989-04-05trk06.flac
     6:04.28       64275500 B   ---   --   ---xx   flac  0.6003  GD989-04-05trk07.flac
    11:31.24      121948892 B   ---   --   ---xx   flac  0.6057  GD989-04-05trk08.flac
     5:22.27       56864348 B   ---   --   ---xx   flac  0.6215  GD989-04-05trk09.flac
     8:23.31       88802156 B   ---   --   ---xx   flac  0.6037  GD989-04-05trk10.flac
     5:53.52       62391548 B   ---   --   ---xx   flac  0.6152  GD989-04-05trk11.flac
     6:36.67       70012028 B   ---   --   ---xx   flac  0.6251  GD989-04-05trk12.flac
    12:06.40      128160524 B   ---   --   ---xx   flac  0.6072  GD989-04-05trk13.flac
    17:54.44      189557132 B   ---   --   ---xx   flac  0.5406  GD989-04-05trk14.flac
     6:37.31       70103756 B   ---   --   ---xx   flac  0.5718  GD989-04-05trk15.flac
     9:25.50       99783644 B   ---   --   ---xx   flac  0.6113  GD989-04-05trk16.flac
    10:46.73      114126140 B   ---   --   ---xx   flac  0.6035  GD989-04-05trk17.flac
     4:36.19       48731132 B   ---   --   ---xx   flac  0.6129  GD989-04-05trk18.flac
   153:30.67     1624802376 B                            0.5973  (18 files)
Show Checksums
ffp
GD989-04-05trk01.flac:226bcaff95b0c1d9ab76aeffac6df428
GD989-04-05trk02.flac:aab8fdcb0b6e76efffeaef8b129d99e2
GD989-04-05trk03.flac:1ec146e5ce0a6b3dd92eaab9f11e48f1
GD989-04-05trk04.flac:ea0577686f8adda01eaca701bf2b233e
GD989-04-05trk05.flac:81491d003dd1b36766faeb83b3375c6e
GD989-04-05trk06.flac:75d71e0197e1cbbe1190baee04a26458
GD989-04-05trk07.flac:c858131fefb6a25abb57210d9d1c96b5
GD989-04-05trk08.flac:644cc951b0d1ca70cf05f2aa912c8258
GD989-04-05trk09.flac:4fd797cddae42579895d7e1e6df70cd5
GD989-04-05trk10.flac:984d7bcc874f9f2997e6319f1984b2d4
GD989-04-05trk11.flac:a1ed9ce3522e72d5de70b2585542c906
GD989-04-05trk12.flac:e0ce7009ad7067f25c9162948486f158
GD989-04-05trk13.flac:fc4c859fc9ffe3a5403ad8e55268d56d
GD989-04-05trk14.flac:fb6e0b753acdae058e92a972ca1a9b21
GD989-04-05trk15.flac:b0b3ce0867a2fb7c673637b87c1b5175
GD989-04-05trk16.flac:413e261989afba784efcc1a07a03e544
GD989-04-05trk17.flac:67fd483cdee793ad1b292e5b65341321
GD989-04-05trk18.flac:4512ea69abf461cb91e380233ae4cffa
flac-md5
c25b3f8ee7ff1fc958b08468af6fd5d9 *GD989-04-05trk01.flac
650980a6830f2a06bf4ea92b02bd4901 *GD989-04-05trk02.flac
21fffbfef3f142ed52068181d34d0bd4 *GD989-04-05trk03.flac
870511c05b4f79c0ee7254daaa7ecfad *GD989-04-05trk04.flac
f3c6392fcf4d6bd10538834e2d101ca6 *GD989-04-05trk05.flac
22000b766ada80217f1e1de2f3204385 *GD989-04-05trk06.flac
9b9d47c76ae380a261a6f9c32528d948 *GD989-04-05trk07.flac
73309e745868e660fed9606a074a32f0 *GD989-04-05trk08.flac
4213caec6e0d6a155c8edf70df4f200d *GD989-04-05trk09.flac
a88695a6679a50d5fc82f2cc22d6f8ad *GD989-04-05trk10.flac
929b2e097951d9dcbd1b1a1a3745b9d9 *GD989-04-05trk11.flac
576bdf83a15fa2325a13aed5d2ed3f72 *GD989-04-05trk12.flac
59078da655a1bc4d6a1efad0bf75d38e *GD989-04-05trk13.flac
c133c769e85559251946e0936d55cf25 *GD989-04-05trk14.flac
2f1009c870ae7c3bf6b75379ad9514e7 *GD989-04-05trk15.flac
d6701f17ba096caf664b502d44a3692a *GD989-04-05trk16.flac
8766df617d0d878ad8a804c2fbaacb68 *GD989-04-05trk17.flac
a3bc99b8ce150bb9e1dc265af6bbce00 *GD989-04-05trk18.flac

Comments
Add Comment
Other Sources (comments)
Healy Ultra Mix - sbd+aud>... (2) Healy Ultra Mix Cassette... (0) flac16; Recording... (0) flac16; source: aud... (0) flac16; Recorded &... (0) flac16; Source Info:... (0)
Date User Comment