Browse Collections Artists Sources   Search Dates

Add Show    List Management    Help


Grateful Dead 04/06/89
Crisler Arena, Ann Arbor, MI
Comments Add Comment    Source Collectors    Add to Collection    Add to Want List    History
Source # 100672 Other Sources
Entered by Gary Field
Checksums ffp , flac-md5
Disc Counts 3 / 3
Media Size
Date Circulated
Date Added
08/15/2009
08/15/2009
Source Summary flac16; Taper: Greg Holtz Source: Nakamichi CM-100 mics with CP-4 shotgun caps -> Sony D-5 Transfer: By JAZ, Master Cassettes (Maxell MX90 Metal) Tascam 112 -> Korg MR-1, @ 1bit 2.8MHz -> USB -> Korg Audio Gate Software 24bit 48KHz -> Wave Lab 5.0 w/UAD -> r8brain PRO for Sample Rate Conversion 16/44.1KHz -> Traders Little Helper flac8 
  Archive
Source Information - Download Text | Download Zip
Grateful Dead
Crisler Arena
Ann Arbor, MI
April 6th 1989

Taper: Greg Holtz

Source: Nakamichi CM-100 mics with CP-4 shotgun caps -> Sony D-5

Transfer: By JAZ, Master Cassettes (Maxell MX90 Metal) Tascam 112 -> Korg MR-1, @ 1bit 2.8MHz -> USB -> Korg Audio Gate Software 24bit 48KHz -> Wave Lab 5.0 w/UAD ->  r8brain PRO for Sample Rate Conversion 16/44.1KHz -> Traders Little Helper flac8

Set I:
1.Touch Of Gray
2.Little Red Rooster
3.Brown Eyed Women
4.Mama Tried->
5.Mexicali Blues
6.Althea
7.When I Paint My Masterpiece
8.Bird Song
9.Promised Land

Set II
10.Scarlet Begonias->
11.Fire On The Mountain->
12.Scarlet Begonias
13.Playin' In The Band->
14.Built To Last->
15.Drums->
16.I Will Take You Home->
17.The Other One->
18.Wharf Rat->
19.Around & Around->
20.Playin' In The Band

Encore:
21.Brokedown Palace

SHNTOOL:
    length     expanded size    cdr  WAVE problems  fmt   ratio  filename
     7:42.34       81576812 B   ---   --   ---xx   flac  0.5810  GD1989-04-06trk01.flac
     9:08.52       96789548 B   ---   --   ---xx   flac  0.5820  GD1989-04-06trk02.flac
     5:59.17       63367628 B   ---   --   ---xx   flac  0.5791  GD1989-04-06trk03.flac
     2:50.66       30143276 B   ---   --   ---xx   flac  0.5854  GD1989-04-06trk04.flac
     4:48.29       50871452 B   ---   --   ---xx   flac  0.6028  GD1989-04-06trk05.flac
     6:52.34       72756812 B   ---   --   ---xx   flac  0.5859  GD1989-04-06trk06.flac
     4:56.53       52339100 B   ---   --   ---xx   flac  0.6060  GD1989-04-06trk07.flac
    13:55.19      147338732 B   ---   --   ---xx   flac  0.5850  GD1989-04-06trk08.flac
    14:32.47      153931388 B   ---   --   ---xx   flac  0.5975  GD1989-04-06trk09.flac
    12:08.49      128534492 B   ---   --   ---xx   flac  0.6009  GD1989-04-06trk10.flac
    12:55.62      136855868 B   ---   --   ---xx   flac  0.5928  GD1989-04-06trk11.flac
     7:24.23       78375740 B   ---   --   ---xx   flac  0.6016  GD1989-04-06trk12.flac
    16:12.45      171566684 B   ---   --   ---xx   flac  0.5591  GD1989-04-06trk13.flac
     3:53.02       41105948 B   ---   --   ---xx   flac  0.5466  GD1989-04-06trk14.flac
     7:31.19       79601132 B   ---   --   ---xx   flac  0.6124  GD1989-04-06trk15.flac
     9:28.26      100256396 B   ---   --   ---xx   flac  0.5871  GD1989-04-06trk16.flac
     3:55.73       41625740 B   ---   --   ---xx   flac  0.6172  GD1989-04-06trk17.flac
     3:44.64       39664172 B   ---   --   ---xx   flac  0.5910  GD1989-04-06trk18.flac
     6:00.03       63511100 B   ---   --   ---xx   flac  0.5514  GD1989-04-06trk19.flac
   154:01.42     1630212020 B                            0.5870  (19 files)
Show Checksums
ffp
GD1989-04-06trk01.flac:38b9a282ad4293a9b23b37f7c2a28137
GD1989-04-06trk02.flac:d3fd7c688f6ec1f3bb8c68f689674779
GD1989-04-06trk03.flac:d3bede87413857773aca2313c1c30b07
GD1989-04-06trk04.flac:847509a9816cc8adebc72e465721afb1
GD1989-04-06trk05.flac:8670337a1225fb6f126e3b865fa43cce
GD1989-04-06trk06.flac:f51d3c366a06ed03a9a081aded47719f
GD1989-04-06trk07.flac:fc67fee25674d05b731297c15e12c963
GD1989-04-06trk08.flac:6c04352be76a2afb5f8be5cb02da08a1
GD1989-04-06trk09.flac:caa37483f9e557ce709e1561fb0b21b8
GD1989-04-06trk10.flac:876edaa9a3e346563f5bec306e9a2724
GD1989-04-06trk11.flac:00ca2ab5fd2f8eb1c4eb4397ffe21d56
GD1989-04-06trk12.flac:d993d067c61f72a21d7f8016a7567d5f
GD1989-04-06trk13.flac:74ee9883d9531d39081ffd87351f21c9
GD1989-04-06trk14.flac:bff6f7ed4c35808518383300f2ba4691
GD1989-04-06trk15.flac:41807d386ce9762c99f1c0d0abdc4176
GD1989-04-06trk16.flac:b695f95c7a413b21cab7fedeb6a3f857
GD1989-04-06trk17.flac:2b744004b9ff99f78a7c120145499b0f
GD1989-04-06trk18.flac:c3286144f2ee75626afcc58b24071b58
GD1989-04-06trk19.flac:a8a93234980f225491193ffb26debea6
flac-md5
21a61d5843498ba754c247843e31621b *GD1989-04-06trk01.flac
c95962868cd348bfa52c7f3f1526ef95 *GD1989-04-06trk02.flac
c3ee5bd33fa77c7a8449049a8282c132 *GD1989-04-06trk03.flac
28b361e9adae0cc80f45f34be4dc7f3a *GD1989-04-06trk04.flac
88679aa4807b178c978dcfba211c377b *GD1989-04-06trk05.flac
bd75bb557779ce3d90e3e739b37e4666 *GD1989-04-06trk06.flac
042ecc89bc610d52bd4214c2541b2aa3 *GD1989-04-06trk07.flac
fc7e7562713225bbbc7481157855328a *GD1989-04-06trk08.flac
4c9cd131024800de159a45950d94be24 *GD1989-04-06trk09.flac
b6255c6ae412bdc8d1ff83540b7da13b *GD1989-04-06trk10.flac
f9f9a12ec208cd231f99c1551904842b *GD1989-04-06trk11.flac
49482baeffae648d19d7bc1020f69f5e *GD1989-04-06trk12.flac
6f2e6c25fed56229f484aa595b55af73 *GD1989-04-06trk13.flac
f05e20fbcfffea0da9ad32c2fb3c5604 *GD1989-04-06trk14.flac
397dde358c4687767226024fe6e3578e *GD1989-04-06trk15.flac
a5f3c7eb68740ca884ec078d24f9c2a3 *GD1989-04-06trk16.flac
04ebb0232fcb409e0169451ac4813be4 *GD1989-04-06trk17.flac
84c34b6944dbb290ddabcf2607fc765d *GD1989-04-06trk18.flac
ea765e6b8579f0ec734cdf741622d885 *GD1989-04-06trk19.flac

Comments
Add Comment
Other Sources (comments)
Healy Ultra Mix - sbd+aud>... (2) complete; Soundboard... (1) flac16; Recording... (0) flac16; source: aud... (0) flac16; matrix... (0) flac16; Recorded &... (0) flac16; (original... (0) flac16; Matrix 2... (0) DTS-Audio-CD 5.1... (0) flac16; Source Info:... (0)
Date User Comment