Browse Collections Artists Sources   Search Dates

Add Show    List Management    Help


Phish 08/14/09
Comcast Theatre, Hartford, CT
Comments Add Comment    Source Collectors    Add to Collection    Add to Want List    History
Source # 100676 Other Sources
Entered by Jason Sobel
Checksums 16bit-FFP , 24bit-FFP
Disc Counts 2 / 3
Media Size
Date Circulated
Date Added
08/15/2009
08/15/2009
Source Summary Schoeps MK4 > KC5 > CMC6 > Sonosax SX-M2 > Apogee Mini-me > Edirol R-44 (@ 24/96); SD-HC Card > Soundforge 8 (tracking, resample/dither to 16bit/44.1khz) > FLAC; Taped & Transferred by Andy Murray (NOTE: both 16 bit & 24 bit versions are available) 
Source Information - Download Text | Download Zip
-----------------------------------------
----    16 bit / 44.1 kHz version    ----
-----------------------------------------

Phish
2009-08-14
Comcast Theatre (Meadows Music Theater)
Hartford, CT

Recorded and transferred by Andy Murray

Taper's Section DINa
Schoeps MK4>KC5>CMC6>Sonosax SX-M2>Apogee Mini-me(aes [email protected] bit/96khz)>COAX>Edirol R-44
SD-HC Card>USB>Soundforge 8(tracking,resample/dither to 16bit/44.1khz)>FLAC (sector alignment,Level 8)

3 Discs
2 Sets

Disc 1:
Set 1:

Intro
Punch You in the Eye
AC/DC Bag
NICU
Colonel Forbin's Ascent >
Fly Famous Mockingbird
Birds Of A Feather
Lawn Boy
Stash
I Didn't Know
Middle Of The Road

Disc 2:
Set 1 cont...

Character Zero

Set 2:

Intro
Down With Disease >
Wilson >
Slave To The Traffic Light
Piper >
Water In The Sky
Ghost >
Psycho Killer >
Catapult >
Icculus >
You Enjoy Myself

Encore:

While My Guitar Gently Weeps

    length     expanded size   cdr  WAVE problems filename
     0:54.22        9577388    ---   --   -----   phish2009-08-14_mk4_1644_d1t01.wav
     8:35.36       90930716    ---   --   -----   phish2009-08-14_mk4_1644_d1t02.wav
     6:50.53       72448700    ---   --   -----   phish2009-08-14_mk4_1644_d1t03.wav
     6:35.52       69800348    ---   --   -----   phish2009-08-14_mk4_1644_d1t04.wav
     6:13.27       65860748    ---   --   -----   phish2009-08-14_mk4_1644_d1t05.wav
     8:10.13       86466620    ---   --   -----   phish2009-08-14_mk4_1644_d1t06.wav
     9:37.30      101853404    ---   --   -----   phish2009-08-14_mk4_1644_d1t07.wav
     3:29.12       36895868    ---   --   -----   phish2009-08-14_mk4_1644_d1t08.wav
    13:56.74      147644492    ---   --   -----   phish2009-08-14_mk4_1644_d1t09.wav
     4:19.59       45826412    ---   --   -----   phish2009-08-14_mk4_1644_d1t10.wav
     4:56.49       52329692    ---   --   -----   phish2009-08-14_mk4_1644_d1t11.wav
     7:40.18       81186380    ---   --   -----   phish2009-08-14_mk4_1644_d2t01.wav
     0:36.67        6508028    ---   --   -----   phish2009-08-14_mk4_1644_d2t02.wav
    13:16.59      140553212    ---   --   -----   phish2009-08-14_mk4_1644_d2t03.wav
     5:00.29       52988252    ---   --   -----   phish2009-08-14_mk4_1644_d2t04.wav
    10:02.13      106223420    ---   --   -----   phish2009-08-14_mk4_1644_d2t05.wav
    13:04.15      138332924    ---   --   -----   phish2009-08-14_mk4_1644_d2t06.wav
     3:32.02       37401548    ---   --   -----   phish2009-08-14_mk4_1644_d2t07.wav
    10:45.07      113794508    ---   --   -----   phish2009-08-14_mk4_1644_d3t01.wav
     4:00.70       42500684    ---   --   -----   phish2009-08-14_mk4_1644_d3t02.wav
     3:02.00       32104844    ---   --   -----   phish2009-08-14_mk4_1644_d3t03.wav
     5:24.58       57290060    ---   --   -----   phish2009-08-14_mk4_1644_d3t04.wav
    18:32.10      196180364    ---   --   -----   phish2009-08-14_mk4_1644_d3t05.wav
     7:16.57       77044508    ---   --   -----   phish2009-08-14_mk4_1644_d3t06.wav
   175:54.07     1861743120 B                     (totals for 24 files, 1.0000 overall compression ratio)






---------------------------------------
----    24 bit / 96 kHz version    ----
---------------------------------------

Phish
2009-08-14
Comcast Theatre (Meadows Music Theater)
Hartford, CT

Recorded and transferred by Andy Murray

Taper's Section DINa
Schoeps MK4>KC5>CMC6>Sonosax SX-M2>Apogee Mini-me(aes [email protected] bit/96khz)>COAX>Edirol R-44
SD-HC Card>USB>Soundforge 8(tracking)>FLAC Level 8

3 Discs
2 Sets

Disc 1:
Set 1:

Intro
Punch You in the Eye
AC/DC Bag
NICU
Colonel Forbin's Ascent >
Fly Famous Mockingbird
Birds Of A Feather
Lawn Boy
Stash
I Didn't Know
Middle Of The Road
Character Zero

Disc 2:
Set 2:

Intro
Down With Disease >
Wilson >
Slave To The Traffic Light
Piper >
Water In The Sky
Ghost >
Psycho Killer >
Catapult >
Icculus >
You Enjoy Myself

Encore:

While My Guitar Gently Weeps

Show Checksums
16bit-FFP
phish2009-08-14_mk4_1644_d1t01.flac:029604666ac3aefa653bc22d97b11b1c
phish2009-08-14_mk4_1644_d1t02.flac:011112bdf23e1fb3480e8ca23576a54d
phish2009-08-14_mk4_1644_d1t03.flac:0918a1a0ab9e963e1631b49d78d7eade
phish2009-08-14_mk4_1644_d1t04.flac:999b6e50b4e4ac635de49df8fdd996ec
phish2009-08-14_mk4_1644_d1t05.flac:3fe47de2a12b4cb6763b562091011e2d
phish2009-08-14_mk4_1644_d1t06.flac:25508c2f851f43dda2c464bddef8eb3d
phish2009-08-14_mk4_1644_d1t07.flac:a587bca51863ed874f6a16244d38359b
phish2009-08-14_mk4_1644_d1t08.flac:58a99caa5b57b98b64dff7607d1e3cf9
phish2009-08-14_mk4_1644_d1t09.flac:8f5fdae20bd7a894be84a308691f8e7c
phish2009-08-14_mk4_1644_d1t10.flac:13c79832842f0cb069635ab585d4ce5d
phish2009-08-14_mk4_1644_d1t11.flac:5b04fd2d9929614ccb0c6d9b928597c1
phish2009-08-14_mk4_1644_d2t01.flac:af0f08e6d3ab6696be5820521748160b
phish2009-08-14_mk4_1644_d2t02.flac:29e51ab0d0e61ee3b3749ddc55ecd24d
phish2009-08-14_mk4_1644_d2t03.flac:69332cd4c26f791550f877a6f302b059
phish2009-08-14_mk4_1644_d2t04.flac:ce3ac71907292af6cad11cf21c48decd
phish2009-08-14_mk4_1644_d2t05.flac:4d76a0dab84d392c3ce5cdda09f23216
phish2009-08-14_mk4_1644_d2t06.flac:7bc8a9dc6241453d9000bf6fba9e1b7d
phish2009-08-14_mk4_1644_d2t07.flac:43f771641b7d9e503871ee3d81c6e35d
phish2009-08-14_mk4_1644_d3t01.flac:1ca67d54e30a4df4363443f986af640a
phish2009-08-14_mk4_1644_d3t02.flac:f5b3fee210a44570903250611c4144d1
phish2009-08-14_mk4_1644_d3t03.flac:303dee0dd07c0c43c9a032e4d83d61aa
phish2009-08-14_mk4_1644_d3t04.flac:bf62c02c518195092a5ec90a7fbbdab9
phish2009-08-14_mk4_1644_d3t05.flac:4e683588ee530a15697cb871c63fb010
phish2009-08-14_mk4_1644_d3t06.flac:a52234d152af10477ec867fd873fe3d1
24bit-FFP

phish2009-08-14_mk4_2496_d1t01.flac:8eecf3591d83cdfb46e10414e92d4147
phish2009-08-14_mk4_2496_d1t02.flac:c0ccda3bb31498f4f24492ec6efbdb88
phish2009-08-14_mk4_2496_d1t03.flac:0e3f379304128ada3f771419dc928b89
phish2009-08-14_mk4_2496_d1t04.flac:a0adbe50d4e511e41c80b32535f01615
phish2009-08-14_mk4_2496_d1t05.flac:84da617a9c9156bca1c44ac4b51c3e1e
phish2009-08-14_mk4_2496_d1t06.flac:0eabd4a3bbcff6d01c3988293b003c03
phish2009-08-14_mk4_2496_d1t07.flac:dd0ed786b9b9ea52fb87e3d3cddf95af
phish2009-08-14_mk4_2496_d1t08.flac:9306d2978693f7ccd5b594762f798376
phish2009-08-14_mk4_2496_d1t09.flac:2fda37480a78a087ee3db158910a9eac
phish2009-08-14_mk4_2496_d1t10.flac:e8bb8ccc050740f08108926fbbbb95d3
phish2009-08-14_mk4_2496_d1t11.flac:78aefa36c72e3b3aefaa278104e8ef02
phish2009-08-14_mk4_2496_d1t12.flac:789aac557c4bd10ddb1817422479520f
phish2009-08-14_mk4_2496_d2t01.flac:b83f79829e4310b0ac4b0b665b1a7f6a
phish2009-08-14_mk4_2496_d2t02.flac:5db7e4c32c675153052eba295b49ac32
phish2009-08-14_mk4_2496_d2t03.flac:4865b6bd97310987193a87caeca686dc
phish2009-08-14_mk4_2496_d2t04.flac:382a21d5ae9bf98af172dd378bdb7f75
phish2009-08-14_mk4_2496_d2t05.flac:d93e617b03dbcc926cfa021a497c13e4
phish2009-08-14_mk4_2496_d2t06.flac:1896bead07e872607870c8b5c1e5cb89
phish2009-08-14_mk4_2496_d2t07.flac:7dd7f74666a8fd8f6ade4827c0056b6a
phish2009-08-14_mk4_2496_d2t08.flac:b2a6b6f117446cfb0f3908c3c77f1f79
phish2009-08-14_mk4_2496_d2t09.flac:6df9f853f7988d828027eb254a5dc91b
phish2009-08-14_mk4_2496_d2t10.flac:7cc081756a6b30c04786a260df94d740
phish2009-08-14_mk4_2496_d2t11.flac:3ef7d03e955012b65c4124a1ddceba2e
phish2009-08-14_mk4_2496_d2t12.flac:360ca46d4e060288111273368b1ea0f4

Comments
Add Comment
Other Sources (comments)
Matrix [Microtech Gefell... (0) Microtech Gefell M200's >... (0) LivePhish FLAC download;... (0) Microtech Gefell M210's >... (0)
Date User Comment