Browse Collections Artists Sources   Search Dates

Add Show    List Management    Help


Phish 08/02/09
Red Rocks Amphitheatre, Morrison, CO
Comments Add Comment    Source Collectors    Add to Collection    Add to Want List    History
Source # 100913 Other Sources
Entered by Jason Sobel
Checksums 16bit-FFP
Disc Counts 2 / 3
Media Size
Date Circulated
Date Added
08/26/2009
08/29/2009
Source Summary MBHO 603a/actives/KA100DK (split 20'/TS) > Lunatec V3 > Tascam HD-P2 (24/48); HD-P2 > SF9 (Normalize/Fades) > Wavelab (Dither/Resample to 16/44.1 UV22HR) > CD Wave > FLAC16(8); Taped & Transferred by Eric Foelske 
Source Information - Download Text | Download Zip
Phish

Sunday, August 2, 2009
Red Rocks Amphitheatre
Morrison, CO

** 16 Bit **

Disc 1: (79:09)
Set I
01. Roses are Free
02. Wilson
03. NICU
04. Prince Caspian
05. Back on the Train
06. Reba
07. Grind
08. Beauty of a Broken Heart
09. Sample in a Jar
10. Sugar Shack
11. Waste
12. Kill Devil Falls

Disc 2: (78:41)
Set II...
01. Boogie On Reggae Woman
02. You Enjoy Myself >
03. Undermind > *
04. Drums > *
05. Seven Below > *
06. 2001 > *
07. Waves > *
08. Character Zero *

Disc 3: (20:21)
Encore
01. Crowd
02. Bittersweet Motel
03. Bouncing Around the Room
04. Slave to the Traffic Light

* with Bill Kreutzmann on drums

Source: MBHO 603a/actives/KA100DK(split 20'/TS) > V3(24/48) > HD-P2(digital in)
Transfer: HD-P2 > Firewire > SF9(Normalize/Fades) > Wavelab(Dither/Resample to 16/44.1 UV22HR) > CDWave > FLAC16(8) > Foobar(Live Show Tagger)
Taped & Transfered by: Eric Foelske (taperwookie AT gmail.com)
Thanks to Barrett for the clamp space!
-------------------------------------------------------
FLAC Fingerprint:
-------------------------------------------------------
ph2009-08-02d1t01.flac:48ba5379d0de5ab813f45a5a042527d0
ph2009-08-02d1t02.flac:69d53961eb7a7b4ce8048816bf00d396
ph2009-08-02d1t03.flac:0763b073a849e1a42df0f9cc46d12588
ph2009-08-02d1t04.flac:92f3325c51349ce798c3b1f8c0f15ae9
ph2009-08-02d1t05.flac:ec04f29789de3c9867bf06ccdc895207
ph2009-08-02d1t06.flac:178fb82c67f9fd86eac23c88f1f6a312
ph2009-08-02d1t07.flac:0611c1e88ee1f23021c98559c2614b31
ph2009-08-02d1t08.flac:571386774b1d31dbf1a1f5bc589b1b2b
ph2009-08-02d1t09.flac:fe4eab77752552084993342313698c88
ph2009-08-02d1t10.flac:0c77432f035b7cdc7a4fb2443bbe0daf
ph2009-08-02d1t11.flac:9df68b381ca43d78b239a82efb618042
ph2009-08-02d1t12.flac:f0abcd004efee00c6166acecb4b052d4
ph2009-08-02d2t01.flac:60e1f3c580d13a0b7c3f63d2cd7e368f
ph2009-08-02d2t02.flac:c1c84715b4586a93f7c8e7d867fe06c8
ph2009-08-02d2t03.flac:1c9f049e7a62453a9aceaa0df1eeea03
ph2009-08-02d2t04.flac:02ab862b64945019056de07e3bb7ae31
ph2009-08-02d2t05.flac:ae0525ab16f98c9afef4ea9616bc41dd
ph2009-08-02d2t06.flac:c1dc8d5423cea52560842425a646dbd0
ph2009-08-02d2t07.flac:1191a9b83d1799e73a08b1fd1d3453a5
ph2009-08-02d2t08.flac:cf1c6b80c9ff6768917018b416b1ccb1
ph2009-08-02d3t01.flac:83839f9c5197aa9ca5f1a34dfa1afaa5
ph2009-08-02d3t02.flac:3c467ca66fc21f6dd0a0a6d87ec20240
ph2009-08-02d3t03.flac:7f33520b4efa2729141b6fcc5f4dec97
ph2009-08-02d3t04.flac:39e1b5d848257e346e87193be69c72f6
-------------------------------------------------------
shntool:
-------------------------------------------------------
    length     expanded size   cdr  WAVE problems filename
     4:45.03       50281100    ---   --   ---xx   ph2009-08-02d1t01.flac
     4:08.31       43820156    ---   --   ---xx   ph2009-08-02d1t02.flac
     5:00.13       52950620    ---   --   ---xx   ph2009-08-02d1t03.flac
     8:19.49       88138892    ---   --   ---xx   ph2009-08-02d1t04.flac
     9:21.57       99094508    ---   --   ---xx   ph2009-08-02d1t05.flac
    12:54.03      136540700    ---   --   ---xx   ph2009-08-02d1t06.flac
     2:37.58       27831260    ---   --   ---xx   ph2009-08-02d1t07.flac
     5:21.51       56744396    ---   --   ---xx   ph2009-08-02d1t08.flac
     5:31.59       58527212    ---   --   ---xx   ph2009-08-02d1t09.flac
     5:09.25       54566444    ---   --   ---xx   ph2009-08-02d1t10.flac
     5:41.62       60298268    ---   --   ---xx   ph2009-08-02d1t11.flac
    10:17.56      108970556    ---   --   ---xx   ph2009-08-02d1t12.flac
    16:51.71      178507436    ---   --   ---xx   ph2009-08-02d2t01.flac
    17:53.60      189418364    ---   --   ---xx   ph2009-08-02d2t02.flac
     7:32.35       79815164    ---   --   ---xx   ph2009-08-02d2t03.flac
     2:27.14       25963772    ---   --   ---xx   ph2009-08-02d2t04.flac
    10:44.70      113766284    ---   --   ---xx   ph2009-08-02d2t05.flac
     6:47.65       71947724    ---   --   ---xx   ph2009-08-02d2t06.flac
     8:27.74       89608892    ---   --   ---xx   ph2009-08-02d2t07.flac
     7:55.34       83870012    ---   --   ---xx   ph2009-08-02d2t08.flac
     3:05.30       32704604    ---   --   ---xx   ph2009-08-02d3t01.flac
     3:55.02       41458748    ---   --   ---xx   ph2009-08-02d3t02.flac
     3:43.56       39468956    ---   --   ---xx   ph2009-08-02d3t03.flac
     9:37.37      101869868    ---   --   ---xx   ph2009-08-02d3t04.flac
   178:12.40     1886163936 B                     (totals for 24 files, 0.5170 overall compression ratio)
Show Checksums
16bit-FFP
ph2009-08-02d1t01.flac:48ba5379d0de5ab813f45a5a042527d0
ph2009-08-02d1t02.flac:69d53961eb7a7b4ce8048816bf00d396
ph2009-08-02d1t03.flac:0763b073a849e1a42df0f9cc46d12588
ph2009-08-02d1t04.flac:92f3325c51349ce798c3b1f8c0f15ae9
ph2009-08-02d1t05.flac:ec04f29789de3c9867bf06ccdc895207
ph2009-08-02d1t06.flac:178fb82c67f9fd86eac23c88f1f6a312
ph2009-08-02d1t07.flac:0611c1e88ee1f23021c98559c2614b31
ph2009-08-02d1t08.flac:571386774b1d31dbf1a1f5bc589b1b2b
ph2009-08-02d1t09.flac:fe4eab77752552084993342313698c88
ph2009-08-02d1t10.flac:0c77432f035b7cdc7a4fb2443bbe0daf
ph2009-08-02d1t11.flac:9df68b381ca43d78b239a82efb618042
ph2009-08-02d1t12.flac:f0abcd004efee00c6166acecb4b052d4
ph2009-08-02d2t01.flac:60e1f3c580d13a0b7c3f63d2cd7e368f
ph2009-08-02d2t02.flac:c1c84715b4586a93f7c8e7d867fe06c8
ph2009-08-02d2t03.flac:1c9f049e7a62453a9aceaa0df1eeea03
ph2009-08-02d2t04.flac:02ab862b64945019056de07e3bb7ae31
ph2009-08-02d2t05.flac:ae0525ab16f98c9afef4ea9616bc41dd
ph2009-08-02d2t06.flac:c1dc8d5423cea52560842425a646dbd0
ph2009-08-02d2t07.flac:1191a9b83d1799e73a08b1fd1d3453a5
ph2009-08-02d2t08.flac:cf1c6b80c9ff6768917018b416b1ccb1
ph2009-08-02d3t01.flac:83839f9c5197aa9ca5f1a34dfa1afaa5
ph2009-08-02d3t02.flac:3c467ca66fc21f6dd0a0a6d87ec20240
ph2009-08-02d3t03.flac:7f33520b4efa2729141b6fcc5f4dec97
ph2009-08-02d3t04.flac:39e1b5d848257e346e87193be69c72f6

Comments
Add Comment
Other Sources (comments)
Schoeps mk2s > KCY >... (0) B&K4 022 > Sound Devices... (0) Neumann ak40's > Lc3 > km... (0) Schoeps mk6 (Cardioid) >... (0) Schoeps MK21 > CMR >... (0) Neumann u89i (split omni) >... (0) Schoeps mk41 (NOS) > kc5 >... (0) Schoeps mk22 > kc5 > cmc6 >... (0) ADK A51 TL's (omni) > Grace... (0) Neumann skm184 > Sound... (0)
Date User Comment