Browse Collections Artists Sources   Search Dates

Add Show    List Management    Help


Grateful Dead 09/02/83
Boise State University Pavillion, Boise, ID
Comments Add Comment    Source Collectors    Add to Collection    Add to Want List    History
Source # 100930 Other Sources
Entered by dr.unclear
Checksums ffp , flac-md5
Disc Counts 2 / 3
Media Size
Date Circulated
Date Added
09/01/2009
08/30/2009
Source Summary flac16; Matrix by Hunter Seamons using Final Cut Pro (SHN>AIFF>Final Cut>WAV>FLAC)  
  Archive
Source Information - Download Text | Download Zip
Grateful Dead
Boise Pavilion, Boise State University
Boise, ID
September 2, 1983

Jerry Garcia - Lead Guitar, Vocals
Mickey Hart - Drums
Bill Kreutzmann - Drums
Phil Lesh - Electric Bass, Vocals
Brent Mydland - Keyboards, Vocals
Bob Weir - Rhythm Guitar, Vocals



*Matrix*

-----------------------------------------------------------------
SBD (shnid=2174):

cassette master>DAT>CDR via anonymous benefactor

-----------------------------------------------------------------
AUD (shnid=23854):

10th Row Center
2 BeyerM160 Left & Right Channels          
1 Sennheiser 421 Center Channel
Sony TCD5M Cassette Master>SoundForge5

[shnid=17958 (Doug Nawrocki) was used to patch most of Drums, the Peter>Magnolia transition, and the crowd before the encore.]

[There were several momentary cuts throughout the AUD.]

-----------------------------------------------------------------
Thanks to all -
and to Rob Bertrando for pitch verification.

Matrix by Hunter Seamons using Final Cut Pro (SHN>AIFF>Final Cut>WAV>FLAC)
August 30, 2009


Set I
-----
d1t01 - Wang Dang Doodle ->
d1t02 - Jack Straw
d1t03 - They Love Each Other
d1t04 - Mama Tried ->
d1t05 - Big River
d1t06 - Brown-Eyed Women
d1t07 - Minglewood Blues
d1t08 - Big Railroad Blues
d1t09 - Looks Like Rain ->
d1t10 - Deal

Set II
-----
d2t01 - Help on the Way ->
d2t02 - Slipknot ->
d2t03 - Franklin's Tower
d2t04 - Estimated Prophet ->
d2t05 - Eyes of the World ->
d2t06 - Jam* ->
d2t07 - Drums ->
d3t01 - Space ->
d3t02 - Throwing Stones ->
d3t03 - Goin' Down the Road, Feeling Bad ->
d3t04 - Black Peter ->
d3t05 - Sugar Magnolia

Encore
------
d3t06 - It's All Over Now, Baby Blue


*Bob, Brent, and Drummers



Notes:

1) Filled matrix requests:

7/27/73 (Bill Zormeir [aka Zman])
5/9/77 (Eric_A_DeadHead via matrix request list)
6/7/77 (Rob Bertrando)
6/9/77 (Rob Bertrando)
5/9/81
5/12/81 (fishmanj)
9/20/82
9/21/82 (billydlions)
10/9/82
9/2/83 (billydlions)
9/6/83 (Rob Bertrando)
10/15/83 (Sporeboy36)
3/28/85
6/24/85
6/30/85 (Sporeboy36)
7/1/85
4/8/89 (gratefulydeadicated [aka Ron])
3/20/92 (ljg)


Thank you for the requests.



    length     expanded size    cdr  WAVE problems  fmt   ratio  filename
     6:31.16       69010076 B   ---   --   ---xx  gd83-09-02d1t01.flac
     5:38.51       59743196 B   ---   --   ---xx  gd83-09-02d1t02.flac
     7:44.50       81967244 B   ---   --   ---xx  gd83-09-02d1t03.flac
     2:42.27       28640348 B   ---   --   ---xx  gd83-09-02d1t04.flac
     6:15.60       66291164 B   ---   --   ---xx  gd83-09-02d1t05.flac
     5:41.71       60319436 B   ---   --   ---xx  gd83-09-02d1t06.flac
     7:51.50       83202044 B   ---   --   ---xx  gd83-09-02d1t07.flac
     7:23.56       78276956 B   ---   --   ---xx  gd83-09-02d1t08.flac
    10:50.74      114834092 B   ---   --   ---xx  gd83-09-02d1t09.flac
     9:48.17      103763228 B   ---   --   ---xx  gd83-09-02d1t10.flac
     4:02.18       42731180 B   ---   --   ---xx  gd83-09-02d2t01.flac
     7:26.08       78693260 B   ---   --   ---xx  gd83-09-02d2t02.flac
    14:15.65      150974924 B   ---   --   ---xx  gd83-09-02d2t03.flac
    12:50.10      135851564 B   ---   --   ---xx  gd83-09-02d2t04.flac
    12:56.58      137022860 B   ---   --   ---xx  gd83-09-02d2t05.flac
     2:46.07       29298908 B   ---   --   ---xx  gd83-09-02d2t06.flac
     5:32.48       58677740 B   ---   --   ---xx  gd83-09-02d2t07.flac
    10:05.68      106881980 B   ---   --   ---xx  gd83-09-02d3t01.flac
     7:50.70       83072684 B   ---   --   ---xx  gd83-09-02d3t02.flac
     7:49.68       82891580 B   ---   --   ---xx  gd83-09-02d3t03.flac
     8:13.27       87028748 B   ---   --   ---xx  gd83-09-02d3t04.flac
     9:01.31       95505356 B   ---   --   ---xx  gd83-09-02d3t05.flac
     7:24.06       78335756 B   ---   --   ---xx  gd83-09-02d3t06.flac
   180:44.56     1913014324 B                            0.5966  (23 files)
Show Checksums
ffp
gd83-09-02d1t01.flac:b1e2de85566642b872b310f30247729a
gd83-09-02d1t02.flac:d0756383cb7e0f84fea35a9c45f68991
gd83-09-02d1t03.flac:15dd006a2a45dea6532872aecdbb4177
gd83-09-02d1t04.flac:88644729a90704fe2fc6b5e50bd91611
gd83-09-02d1t05.flac:9c7818a44b512b95dca682c93a720cea
gd83-09-02d1t06.flac:813367f82c7b4ff7f1150b9d6a65778a
gd83-09-02d1t07.flac:3521541a967f1e29f24b393c2acd54d3
gd83-09-02d1t08.flac:1386774f08d4c7b2ac66bf2883c36fca
gd83-09-02d1t09.flac:24ed739ee5dc549b8cb52b0d7701aac0
gd83-09-02d1t10.flac:8c4bba63ab91effd12a80fe6dc90beaa
gd83-09-02d2t01.flac:3bf3556385d863b2fab0b2b9b06f4995
gd83-09-02d2t02.flac:0c33f65c59f690f7c394a3b6ac4dae98
gd83-09-02d2t03.flac:cda4f69cef6d41ec9f786e05bfde0e68
gd83-09-02d2t04.flac:fab20a3ddc269f9622a911fa68d4df8c
gd83-09-02d2t05.flac:eae5601b623b4a31d99a82362cd3d485
gd83-09-02d2t06.flac:d142c1dee6c7ccd5e2696c55d82dce01
gd83-09-02d2t07.flac:7de14fc134e4e8b6f914878a99dad3ef
gd83-09-02d3t01.flac:64d2024c33366b94e2bcb2f0e4a831b9
gd83-09-02d3t02.flac:36469d9a3b711be5aec78d3970b1c7d1
gd83-09-02d3t03.flac:032659bfd5afc6605abf4748bfa3e9e3
gd83-09-02d3t04.flac:640e4f0d0f6a345931ff1407e5d253f0
gd83-09-02d3t05.flac:f304fb2f20e003d86c3de128b5191aee
gd83-09-02d3t06.flac:7bfc0ea7e9fcd827c72302aef83ea56f
flac-md5
ae4d2ee095ab5ed91eec8ab3947c56c8 *gd83-09-02d1t01.flac
87ce075c2ae21a23c9a86358d29d47a0 *gd83-09-02d1t02.flac
429a16256d25054c83af5bfd8a38d947 *gd83-09-02d1t03.flac
a37de4d42dbe158c29b599b4c5ba5750 *gd83-09-02d1t04.flac
b67746d428bd8f2b08231004bd7cece7 *gd83-09-02d1t05.flac
7bd84da6896b3f2c054ae9af4c6edd32 *gd83-09-02d1t06.flac
6a42b81200d286736f9022dae849a3a7 *gd83-09-02d1t07.flac
72bc7211dfa927c24f4eb72df1cf5c43 *gd83-09-02d1t08.flac
57a658b79e9d06ce1b272f26df0240da *gd83-09-02d1t09.flac
f6dfbd685d9b63f7aa874f666981058d *gd83-09-02d1t10.flac
35a00b962e93d6079644f6b434d12bd0 *gd83-09-02d2t01.flac
ad6336d5d47fe91410c99312a5b5b886 *gd83-09-02d2t02.flac
f6737b5dd99fe3555b61b396a4245cd6 *gd83-09-02d2t03.flac
996a5b8cf64007990641ca3267ed7703 *gd83-09-02d2t04.flac
7687b5feaf2d7f6f6c132428d1b16af5 *gd83-09-02d2t05.flac
32d9de3214857326f52e3abc2e65b4e4 *gd83-09-02d2t06.flac
3bf9061c35ecdb6789a52fac6eb755f7 *gd83-09-02d2t07.flac
722afdbb812f83f8f9ad98ed4983072b *gd83-09-02d3t01.flac
0ece70207cd351f23fd5d3da040688f7 *gd83-09-02d3t02.flac
a7efc7225949604e9d984133b8bd0b9e *gd83-09-02d3t03.flac
0b0116645671778c5d3c313ba7f63d76 *gd83-09-02d3t04.flac
b4af0d049e6edd6c46c5a06b25ad4481 *gd83-09-02d3t05.flac
918a639439f984c4e3c92a1a326e9ab6 *gd83-09-02d3t06.flac

Comments
Add Comment
Other Sources (comments)
FOB AUD PCM(dbx)> dbx... (2) SBD> cassette master>... (3) Source: FOB AUD PCM (DBX)... (0) 10th Row Center 2 BeyerM160... (0) SBD> cassette... (2) flac16, FOB MAC 2... (0) flac16/44.1 ... (0) flac24/48 Master:... (0)
Date User Comment