Browse Collections Artists Sources   Search Dates

Add Show    List Management    Help


Grateful Dead 09/07/90
Richfield Coliseum, Richfield, OH
Comments Add Comment    Source Collectors    Add to Collection    Add to Want List    History
Source # 101018 Other Sources
Entered by dr.unclear
Checksums ffp , flac-md5
Disc Counts 2 / 3
Media Size
Date Circulated
Date Added
09/01/2009
09/02/2009
Source Summary flac16; Source: Audience > Nakamichi 300s with cp1 caps > Sony WM-D6 > MAC (Sony Metal-SR) Transfer: MAC > Nakamichi BX-125E > EMU 0202 > Wavelab > wav 24/96 > Adobe Audition > Wavelab (with iZotope Ozone 4) > iZotope RX Advanced > wav 16/44.1 > CD Wave > TLH > flac16; Taped by John Bleich from OTS sec 8, row ccc, seat 3 
  Archive
Source Information - Download Text | Download Zip
Grateful Dead
Coliseum
Richfield, OH
09/07/1990

Source:  Audience > Nakamichi 300s with cp1 caps > Sony WM-D6 > MAC (Sony Metal-SR)
Transfer: MAC > Nakamichi BX-125E > EMU 0202 > Wavelab > wav 24/96 > Adobe Audition >
                 Wavelab (with iZotope Ozone 4) > iZotope RX Advanced > wav 16/44.1 > CD Wave >
                 TLH > flac16

                 Taped by John Bleich from OTS sec 8, row ccc, seat 3


Disc 1
set I

01   crowd/tuning
02   Cold Rain & Snow >
03   Walkin' Blues
04   crowd/tuning
05   Ramble On Rose
06   crowd/tuning
07   Me And My Uncle >
08   Big River
09   crowd/tuning
10   Althea
11   When I Paint My Masterpiece
12   crowd/tuning
13   Bird Song
14   Picasso Moon
15   U.S. Blues


Disc 2
set II

01   crowd/tuning
02   China Cat Sunflower >
03   I Know You Rider
04   Truckin' >
05   Crazy Fingers >
06   Playing In The Band >
07   Drums >

Disc 3
set II cont'd

01   Space >
02   I Need A Miracle >
03   Black Peter >
04   Turn On Your Love Light
05   crowd/tuning

encore

06   Knockin' On Heaven's Door


Notes:

patch source: Nakamichi cm 100's w/shotguns > Sony D-5  (shnid 98877)

patches:

- d1t03, 4:04 - 4:09
- d1t06, 0:39 - 0:45
- d1t09, 0:49 - 0:58
- d1t13, 13:54 - 14:02
- d2t01, all
- d2t02, 0:00 - 2:14
- d2t06, 13:06 - 13:31
- d2t07, 0:41 - 0:52 and 1:27 - 1:40
- d3t05, 0:01 - 0:56


- seamless change between discs 2 and 3


Comments:

Vince's first show

It's a pity about the cuts because, sonically, this is a very good recording

Thanks to John for lending me his masters


transferred, edited and mastered
SIRMick
August 2009


shntool output:

    length     expanded size    cdr  WAVE problems  fmt   ratio  filename
     1:54.62       20255468 B   ---   --   ---xx   flac  0.5360  gd1990-09-07d1t01.flac
     6:28.15       68478524 B   ---   --   ---xx   flac  0.5781  gd1990-09-07d1t02.flac
     5:30.52       58334348 B   ---   --   ---xx   flac  0.5678  gd1990-09-07d1t03.flac
     1:53.15       19968524 B   ---   --   ---xx   flac  0.5307  gd1990-09-07d1t04.flac
     7:21.73       77964140 B   ---   --   ---xx   flac  0.5520  gd1990-09-07d1t05.flac
     1:24.62       14963468 B   ---   --   ---xx   flac  0.5059  gd1990-09-07d1t06.flac
     3:13.11       34071116 B   ---   --   ---xx   flac  0.5454  gd1990-09-07d1t07.flac
     5:24.58       57290060 B   ---   --   ---xx   flac  0.5553  gd1990-09-07d1t08.flac
     1:04.22       11341388 B   ---   --   ---xx   flac  0.5117  gd1990-09-07d1t09.flac
     7:52.03       83267900 B   ---   --   ---xx   flac  0.5611  gd1990-09-07d1t10.flac
     5:37.02       59451548 B   ---   --   ---xx   flac  0.5558  gd1990-09-07d1t11.flac
     2:54.48       30806540 B   ---   --   ---xx   flac  0.5067  gd1990-09-07d1t12.flac
    14:20.46      151812236 B   ---   --   ---xx   flac  0.5535  gd1990-09-07d1t13.flac
     6:51.11       72526316 B   ---   --   ---xx   flac  0.5769  gd1990-09-07d1t14.flac
     5:38.28       59689100 B   ---   --   ---xx   flac  0.5658  gd1990-09-07d1t15.flac
     2:51.63       30312620 B   ---   --   ---xx   flac  0.4929  gd1990-09-07d2t01.flac
     7:07.13       75353420 B   ---   --   ---xx   flac  0.5356  gd1990-09-07d2t02.flac
     6:25.12       67942268 B   ---   --   ---xx   flac  0.5254  gd1990-09-07d2t03.flac
     9:23.69       99475532 B   ---   --   ---xx   flac  0.5195  gd1990-09-07d2t04.flac
     9:21.22       99012188 B   ---   --   ---xx   flac  0.4975  gd1990-09-07d2t05.flac
    17:00.69      180090332 B   ---   --   ---xx   flac  0.5284  gd1990-09-07d2t06.flac
     8:08.70       86247884 B   ---   --   ---xx   flac  0.5058  gd1990-09-07d2t07.flac
    15:09.73      160519340 B   ---   --   ---xx   flac  0.4908  gd1990-09-07d3t01.flac
     3:44.24       39570092 B   ---   --   ---xx   flac  0.5472  gd1990-09-07d3t02.flac
     9:59.44      105767132 B   ---   --   ---xx   flac  0.5115  gd1990-09-07d3t03.flac
     6:06.40       64656524 B   ---   --   ---xx   flac  0.5534  gd1990-09-07d3t04.flac
     2:46.39       29374172 B   ---   --   ---xx   flac  0.5011  gd1990-09-07d3t05.flac
     7:12.55       76334204 B   ---   --   ---xx   flac  0.5198  gd1990-09-07d3t06.flac
   182:48.51     1934876384 B                            0.5331  (28 files)

flac fingerprints:

gd1990-09-07d1t01.flac:7b5a94f420cdc22c26d6e3fd03a14afa
gd1990-09-07d1t02.flac:88bbb308d46eea62f6fff29debfa57a3
gd1990-09-07d1t03.flac:e404ed73d14983ce2d7cdc17c0f6ba5e
gd1990-09-07d1t04.flac:0859db28305f55499a08773db3e37d01
gd1990-09-07d1t05.flac:dba6e947d6b8b4ffd3a93e169940dd01
gd1990-09-07d1t06.flac:6d14e5c30ca791c239704f3021035995
gd1990-09-07d1t07.flac:749c3d87bc017ab542a1b53f4fc162b6
gd1990-09-07d1t08.flac:7f0b45bff792cd5df47728d0079aecc6
gd1990-09-07d1t09.flac:6bfce4706bdb01ba20b1e9284e55de62
gd1990-09-07d1t10.flac:80ad28235f3b9592df766fb572bf815c
gd1990-09-07d1t11.flac:80220c07de77fd913c7052c8cbc30aab
gd1990-09-07d1t12.flac:83f2ff8403c42a9308a3ff93dc7e9b97
gd1990-09-07d1t13.flac:0414b90d971de342d76e954664e6fda0
gd1990-09-07d1t14.flac:99a9bbacfb4bd20a7e444e35f3313966
gd1990-09-07d1t15.flac:89e6bf585d7e7b17e2713e534a12d44f
gd1990-09-07d2t01.flac:3410fd32765b5e438fcdfcf7a670d474
gd1990-09-07d2t02.flac:cf5f26cd9d62f56a97afb4274dff3fb1
gd1990-09-07d2t03.flac:d92b5b1c247e5579d274b6fb152f731d
gd1990-09-07d2t04.flac:d9d763f3e782abccd89e534c42cc800e
gd1990-09-07d2t05.flac:55bb5ae942f3a4e50057424434c30980
gd1990-09-07d2t06.flac:f5cc6e252b74da80a45fe482ba205bf2
gd1990-09-07d2t07.flac:3d7c6577f2b831e12d22da6df7d3d5f1
gd1990-09-07d3t01.flac:697dbaebc7f1d0222f4b8462cb437269
gd1990-09-07d3t02.flac:49b089e5c1eee6d5eae2451c8a251898
gd1990-09-07d3t03.flac:005e8c938ee364d42510fe6ae56d45c8
gd1990-09-07d3t04.flac:f953be111fc8efd32cde24fee2b377b2
gd1990-09-07d3t05.flac:2a265e23d2b8a9941fc49c7a675ce724
gd1990-09-07d3t06.flac:efe0672cf6685756c24b61957f50c262
Show Checksums
ffp
gd1990-09-07d1t01.flac:7b5a94f420cdc22c26d6e3fd03a14afa
gd1990-09-07d1t02.flac:88bbb308d46eea62f6fff29debfa57a3
gd1990-09-07d1t03.flac:e404ed73d14983ce2d7cdc17c0f6ba5e
gd1990-09-07d1t04.flac:0859db28305f55499a08773db3e37d01
gd1990-09-07d1t05.flac:dba6e947d6b8b4ffd3a93e169940dd01
gd1990-09-07d1t06.flac:6d14e5c30ca791c239704f3021035995
gd1990-09-07d1t07.flac:749c3d87bc017ab542a1b53f4fc162b6
gd1990-09-07d1t08.flac:7f0b45bff792cd5df47728d0079aecc6
gd1990-09-07d1t09.flac:6bfce4706bdb01ba20b1e9284e55de62
gd1990-09-07d1t10.flac:80ad28235f3b9592df766fb572bf815c
gd1990-09-07d1t11.flac:80220c07de77fd913c7052c8cbc30aab
gd1990-09-07d1t12.flac:83f2ff8403c42a9308a3ff93dc7e9b97
gd1990-09-07d1t13.flac:0414b90d971de342d76e954664e6fda0
gd1990-09-07d1t14.flac:99a9bbacfb4bd20a7e444e35f3313966
gd1990-09-07d1t15.flac:89e6bf585d7e7b17e2713e534a12d44f
gd1990-09-07d2t01.flac:3410fd32765b5e438fcdfcf7a670d474
gd1990-09-07d2t02.flac:cf5f26cd9d62f56a97afb4274dff3fb1
gd1990-09-07d2t03.flac:d92b5b1c247e5579d274b6fb152f731d
gd1990-09-07d2t04.flac:d9d763f3e782abccd89e534c42cc800e
gd1990-09-07d2t05.flac:55bb5ae942f3a4e50057424434c30980
gd1990-09-07d2t06.flac:f5cc6e252b74da80a45fe482ba205bf2
gd1990-09-07d2t07.flac:3d7c6577f2b831e12d22da6df7d3d5f1
gd1990-09-07d3t01.flac:697dbaebc7f1d0222f4b8462cb437269
gd1990-09-07d3t02.flac:49b089e5c1eee6d5eae2451c8a251898
gd1990-09-07d3t03.flac:005e8c938ee364d42510fe6ae56d45c8
gd1990-09-07d3t04.flac:f953be111fc8efd32cde24fee2b377b2
gd1990-09-07d3t05.flac:2a265e23d2b8a9941fc49c7a675ce724
gd1990-09-07d3t06.flac:efe0672cf6685756c24b61957f50c262
flac-md5
9767a7e4f45c5de29b5d9eab5d24b466 *gd1990-09-07d1t01.flac
36e32c30f604188d2daa066ae3591d80 *gd1990-09-07d1t02.flac
3849100eae78ec8013275b7a01986170 *gd1990-09-07d1t03.flac
d5844a8721e5b6e795f2fe89237a52b1 *gd1990-09-07d1t04.flac
eabd01a3fc140f9b7b00ca98fa843f66 *gd1990-09-07d1t05.flac
bf06848345368812e63521cbcb7f3dda *gd1990-09-07d1t06.flac
e7ebc4cb3128ebf6b6f8a60dfac80874 *gd1990-09-07d1t07.flac
25c43ef301a7328c9eab3c9ca281c373 *gd1990-09-07d1t08.flac
e60a90b171bea0aba2498869dc1e5dd8 *gd1990-09-07d1t09.flac
68419037ec563de073be4217734398eb *gd1990-09-07d1t10.flac
2973408d61ca0eb2eadbd3431e7f3677 *gd1990-09-07d1t11.flac
425dc2b3bf7079ae3d52789c2eb1fb6d *gd1990-09-07d1t12.flac
f0712108f549306f78a5bc295758a68e *gd1990-09-07d1t13.flac
197bdc4bd09ed2b02dc4b74dbe65ec62 *gd1990-09-07d1t14.flac
591575a7a56b935a2c9951f3e01cc010 *gd1990-09-07d1t15.flac
82ca15f12c6dc8c169b638446f63bd36 *gd1990-09-07d2t01.flac
07a9f6b473545e0c4446ff7efc7a441d *gd1990-09-07d2t02.flac
4ebf29ee793762277971da9db7d2cfc2 *gd1990-09-07d2t03.flac
afa77cd42cc8625d321b3478debebda3 *gd1990-09-07d2t04.flac
10286eac094a1c66780a7a0eb89341df *gd1990-09-07d2t05.flac
5102b3a04dafd8ad5b4b3149b49eb437 *gd1990-09-07d2t06.flac
86648d149e012b5b86cd81f10f5483d4 *gd1990-09-07d2t07.flac
fa6f4e85e7ebd066a27db4daa31c2d0b *gd1990-09-07d3t01.flac
a27edeb93c31fcf2498ceacd7300935e *gd1990-09-07d3t02.flac
df5dfaf6a284ae62b1b7c82393de535b *gd1990-09-07d3t03.flac
0c77a8abbaae999c5dad5fcd8887216b *gd1990-09-07d3t04.flac
1cb78520a36fa5361375c14f14abe413 *gd1990-09-07d3t05.flac
efdc504dfe0f90e12956e463c5696e79 *gd1990-09-07d3t06.flac

Comments
Add Comment
Other Sources (comments)
SBD> Cassette; Conversion:... (6) flac16; SBD -> Dat... (4) flac16; Taper: Greg... (1) flac16; Master... (0) flac24; Master... (0) flac16/48kHz; Rick... (0)
Date User Comment