Browse Collections Artists Sources   Search Dates

Add Show    List Management    Help


Grateful Dead 03/09/81
Madison Square Garden, New York, NY
Comments Add Comment    Source Collectors    Add to Collection    Add to Want List    History
Source # 101159 Other Sources
Entered by dr.unclear
Checksums ffp , flac-md5
Disc Counts 2 / 0
Media Size
Date Circulated
Date Added
09/06/2009
09/06/2009
Source Summary flac24; Matrix by Hunter Seamons using Final Cut Pro (FLAC24 & FLAC16>AIFF>Final Cut>WAV>FLAC24)  
  Archive
Source Information - Download Text | Download Zip
Grateful Dead
Madison Square Garden
New York, NY
March 9, 1981

Jerry Garcia - Lead Guitar, Vocals
Mickey Hart - Drums
Bill Kreutzmann - Drums
Phil Lesh - Electric Bass, Vocals
Brent Mydland - Keyboards, Vocals
Bob Weir - Rhythm Guitar, Vocals




***24 Bit Depth Matrix at 96 kHz Rate***


------------------------------------------
SBD (shnid=74220):

Recording Info:
SBD -> Cassette Master -> Dat (44.1k)

Transfer Info:
Dat (Sony D8) -> VX Pocket 440 -> Sony Vaio C1VP ->
Samplitude Professional v7.02 -> FLAC

All Transfers and Mastering By Charlie Miller
[email protected]
July 4, 2006

Patch Info:
(FOB/12th Row) Nak 700 -> Cassette Master -> Dat -> CD (Taped By Barry Glassberg)
Estimated Prophet patched from 9:41 - 10:02
Stella Blue patched from 4:52 - 5:16
U.S. Blues patched from 0:00 - 0:05

------------------------------------------
AUD (shnid=82373):

MotB Release: #0009/24bit
Release Date:  February 5th 2007

Source: Audience FOB Recording, 12th row center
Media: Maxell UD-XLII 90 min.
Lineage: Nakamichi CM700's > Sony TC-D5M > MAC
Transfer: MAC > Nakamichi DR-1 > Grace Design Lunatec V3 > S/pdif > WaveLAB 5.0 > wav
Taped by: B. Glassberg
Transfer by: A. Egert
Mastering by: C. Ladner

[Tape flip in Drums]

-------------------------------------------
Thank you to Charlie Miller for the SBD transfer,
to Barry Glassberg for recording the show,
and to Adam Egert and Chris Ladner for the AUD transfer.

Matrix by Hunter Seamons using Final Cut Pro (FLAC24 & FLAC16>AIFF>Final Cut>WAV>FLAC24)
September 6, 2009


Set I
-----
s1t01 - Tuning
s1t02 - Feel Like A Stranger
s1t03 - Althea ->
s1t04 - C.C. Rider
s1t05 - Ramble On Rose ->
s1t06 - El Paso
s1t07 - Deep Elem Blues
s1t08 - Beat It On Down The Line
s1t09 - Bird Song
s1t10 - Minglewood Blues

Set II
-----
s2t01 - Tuning
s2t02 - China Cat Sunflower ->
s2t03 - I Know You Rider ->
s2t04 - Samson And Delilah
s2t05 - Ship Of Fools
s2t06 - Estimated Prophet ->
s2t07 - Uncle John's Band ->
s2t08 - Drums ->
s2t09 - Space ->
s2t10 - The Other One ->
s2t11 - Stella Blue* ->
s2t12 - Good Lovin'

Encore
------
s2t13 - U.S. Blues


*includes Wheel tease


Notes:

1) "Caution: Will steal face"

2) Filled matrix requests:

7/27/73 (Bill Zormeir [aka Zman])
5/9/77 (Eric_A_DeadHead via matrix request list)
6/7/77 (Rob Bertrando)
6/9/77 (Rob Bertrando)
3/9/81 (frankie5)
5/9/81 (noahdb)
5/12/81 (fishmanj)
9/20/82 (muziklvr)
9/21/82 (billydlions)
10/9/82
9/2/83 (billydlions)
9/6/83 (Rob Bertrando)
10/15/83 (Sporeboy36)
3/28/85
6/24/85
6/30/85 (Sporeboy36)
7/1/85
4/8/89 (gratefulydeadicated [aka Ron])
3/20/92 (ljg)


Thank you for the requests.



    length     expanded size    cdr  WAVE problems  fmt   ratio  filename
     0:47.281      27233678 B   cxx   --   ---xx  gd81-03-09s1t01.flac
    10:12.880     353018666 B   cxx   --   ---xx  gd81-03-09s1t02.flac
     7:56.476     274450496 B   cxx   --   ---xx  gd81-03-09s1t03.flac
    10:24.925     359956796 B   cxx   --   ---xx  gd81-03-09s1t04.flac
     7:46.567     268742390 B   cxx   --   ---xx  gd81-03-09s1t05.flac
     6:19.179     218407250 B   cxx   --   ---xx  gd81-03-09s1t06.flac
     8:10.657     282618662 B   cxx   --   ---xx  gd81-03-09s1t07.flac
     4:16.323     147642086 B   cxx   --   ---xx  gd81-03-09s1t08.flac
    12:05.425     417845090 B   cxx   --   ---xx  gd81-03-09s1t09.flac
     7:19.540     253174820 B   cxx   --   ---xx  gd81-03-09s1t10.flac
     1:41.235      58311158 B   cxx   --   ---xx  gd81-03-09s2t01.flac
     9:06.413     314733980 B   cxx   --   ---xx  gd81-03-09s2t02.flac
     6:46.907     234378422 B   cxx   --   ---xx  gd81-03-09s2t03.flac
     8:53.066     307046288 B   cxx   --   ---xx  gd81-03-09s2t04.flac
    10:37.671     367298546 B   cxx   --   ---xx  gd81-03-09s2t05.flac
    14:06.580     487630070 B   cxx   --   ---xx  gd81-03-09s2t06.flac
    11:52.212     410234282 B   cxx   --   ---xx  gd81-03-09s2t07.flac
    10:39.773     368509352 B   cxx   --   ---xx  gd81-03-09s2t08.flac
     6:51.845     237222866 B   cxx   --   ---xx  gd81-03-09s2t09.flac
     8:34.581     296398844 B   cxx   --   ---xx  gd81-03-09s2t10.flac
     9:56.296     343466708 B   cxx   --   ---xx  gd81-03-09s2t11.flac
     6:48.141     235089536 B   cxx   --   ---xx  gd81-03-09s2t12.flac
     5:27.060     188386832 B   cxx   --   ---xx  gd81-03-09s2t13.flac
   186:41.034    6451796818 B                            0.6400  (23 files)
Show Checksums
ffp
gd81-03-09s1t01.flac:d40ef2985e5c06ffec3895d2e28dc7a0
gd81-03-09s1t02.flac:d6b333b1a51b06653f9c36aa1f5d3be2
gd81-03-09s1t03.flac:15e5ffc6ab118376ef6bf12714445090
gd81-03-09s1t04.flac:bee03bcac7d3df2d681ca3d41bfb2313
gd81-03-09s1t05.flac:c39bafdebef3740f2b97acd329066c4c
gd81-03-09s1t06.flac:7b962783f61a4975f9f1dc2d36e2d970
gd81-03-09s1t07.flac:1c9e71b51915e391b6020ea653f3f029
gd81-03-09s1t08.flac:f4a450c0c39f3b891000d96c7ed98594
gd81-03-09s1t09.flac:3d75e8473236d2beb7e95ef042f3b1c0
gd81-03-09s1t10.flac:2a957bcb1a6679105103157783beaebf
gd81-03-09s2t01.flac:a4526f1aec4d5a2a8155066fa9c3ba5c
gd81-03-09s2t02.flac:f0b6e2b6cdd13700448ea2155e0e9c56
gd81-03-09s2t03.flac:ad028b3b3fd31f12562e4cbfebdad706
gd81-03-09s2t04.flac:33f045a3c0a266d84e9349b06fd1cfec
gd81-03-09s2t05.flac:dbc8f782ec20b13c69276431c7c7d6ff
gd81-03-09s2t06.flac:e4e20d5cbb3e31b386a0176016074cfe
gd81-03-09s2t07.flac:2f6a06c2c4127326f29d7e5dcfb348b2
gd81-03-09s2t08.flac:e6a381adcd3d6658390ef31463b46aab
gd81-03-09s2t09.flac:5ef415bee2b33ccfa2903447c62f1c09
gd81-03-09s2t10.flac:7d0e0f94d1254cac7081fa7906cf9c17
gd81-03-09s2t11.flac:9f83bec64552919b2ffc129779429a0c
gd81-03-09s2t12.flac:c8a4a198b27659b83ce01a3804fd3df1
gd81-03-09s2t13.flac:74217753b63024320387921b741c2f4a
flac-md5
2af973f38f612f48e8b3abea5de302a8 *gd81-03-09s1t01.flac
d87ce56306f1608bfb0577f3ac3d9a6d *gd81-03-09s1t02.flac
78bc58729bf6d72c34a77fad6c030dbe *gd81-03-09s1t03.flac
d083e96c642cac2069fa2959fe8c3c75 *gd81-03-09s1t04.flac
2cbda4e46f0a7993ef5c3415aa109167 *gd81-03-09s1t05.flac
d18b2aed8f443a593bf078b6ca5c3536 *gd81-03-09s1t06.flac
21058914942e5c6541828314d0af21e7 *gd81-03-09s1t07.flac
0f91ad1b0b6975743f8a7aa74a2658d4 *gd81-03-09s1t08.flac
63fe2b898c9507e6c53e00296350d078 *gd81-03-09s1t09.flac
8ac3beb4a7960ad05f269ebcf761eafd *gd81-03-09s1t10.flac
ed3e8ed277fedd080bfb7724663ddc80 *gd81-03-09s2t01.flac
41b6ccfa579740e8374d2e68a97e06be *gd81-03-09s2t02.flac
d4da61592d74c322ac7718be341abf80 *gd81-03-09s2t03.flac
dd12e12a8145ccb3d1fa963dc2a40f98 *gd81-03-09s2t04.flac
10e91118f4582b42979fe96658225bc9 *gd81-03-09s2t05.flac
e12b5cb6818d669fc29503d7a05567d8 *gd81-03-09s2t06.flac
5cbd1a9b6039fa7a8fbe3a2b5b0783f0 *gd81-03-09s2t07.flac
c1749f7a9e5939558e60de0ead34a43b *gd81-03-09s2t08.flac
21ca5f0e83ac6a8e988d7a1a79e606b1 *gd81-03-09s2t09.flac
815e554d64ed2c906b050568ae248859 *gd81-03-09s2t10.flac
291bc3136cbcfe027afc2a7245a72fc9 *gd81-03-09s2t11.flac
6ca435e8e161b40716441b3c35ad0f3d *gd81-03-09s2t12.flac
0b869eb4fff686056b3d24089d5f6eea *gd81-03-09s2t13.flac

Comments
Add Comment
Other Sources (comments)
Recording by Barry... (0) Sources: Master Soundboard... (1) Recording by Barry... (0) flac16; Recording... (0) flac16; Recording by... (0) flac24/96; Recording... (0) flac16; Recording... (1) flac24; Recording... (0) flac16; Matrix by... (1) flac16; Recording by... (0)
Date User Comment