Browse Collections Artists Sources   Search Dates

Add Show    List Management    Help


Grateful Dead 03/09/81
Madison Square Garden, New York, NY
Comments Add Comment    Source Collectors    Add to Collection    Add to Want List    History
Source # 101168 Other Sources
Entered by Gary Field
Checksums ffp , flac-md5
Disc Counts 2 / 3
Media Size
Date Circulated
Date Added
09/07/2009
09/07/2009
Source Summary flac16; Matrix by Hunter Seamons using Final Cut Pro (FLAC24 & FLAC16>AIFF>Final Cut>WAV>FLAC16) 
  Archive
Source Information - Download Text | Download Zip
Grateful Dead
Madison Square Garden
New York, NY
March 9, 1981

Jerry Garcia - Lead Guitar, Vocals
Mickey Hart - Drums
Bill Kreutzmann - Drums
Phil Lesh - Electric Bass, Vocals
Brent Mydland - Keyboards, Vocals
Bob Weir - Rhythm Guitar, Vocals




*Matrix*


------------------------------------------
SBD (shnid=74220):

Recording Info:
SBD -> Cassette Master -> Dat (44.1k)

Transfer Info:
Dat (Sony D8) -> VX Pocket 440 -> Sony Vaio C1VP ->
Samplitude Professional v7.02 -> FLAC

All Transfers and Mastering By Charlie Miller
[email protected]
July 4, 2006

Patch Info:
(FOB/12th Row) Nak 700 -> Cassette Master -> Dat -> CD (Taped By Barry Glassberg)
Estimated Prophet patched from 9:41 - 10:02
Stella Blue patched from 4:52 - 5:16
U.S. Blues patched from 0:00 - 0:05

------------------------------------------
AUD (shnid=82373):

MotB Release: #0009/24bit
Release Date:  February 5th 2007

Source: Audience FOB Recording, 12th row center
Media: Maxell UD-XLII 90 min.
Lineage: Nakamichi CM700's > Sony TC-D5M > MAC
Transfer: MAC > Nakamichi DR-1 > Grace Design Lunatec V3 > S/pdif > WaveLAB 5.0 > wav
Taped by: B. Glassberg
Transfer by: A. Egert
Mastering by: C. Ladner

[Tape flip in Drums]

-------------------------------------------
Thank you to Charlie Miller for the SBD transfer,
to Barry Glassberg for recording the show,
and to Adam Egert and Chris Ladner for the AUD transfer.

Matrix by Hunter Seamons using Final Cut Pro (FLAC24 & FLAC16>AIFF>Final Cut>WAV>FLAC16)
September 6, 2009


Set I
-----
d1t01 - Tuning
d1t02 - Feel Like A Stranger
d1t03 - Althea ->
d1t04 - C.C. Rider
d1t05 - Ramble On Rose ->
d1t06 - El Paso
d1t07 - Deep Elem Blues
d1t08 - Beat It On Down The Line
d1t09 - Bird Song
d1t10 - Minglewood Blues

Set II
-----
d2t01 - Tuning
d2t02 - China Cat Sunflower ->
d2t03 - I Know You Rider ->
d2t04 - Samson And Delilah
d2t05 - Ship Of Fools
d2t06 - Estimated Prophet ->
d2t07 - Uncle John's Band ->
d2t08 - Drums ->
d3t01 - Space ->
d3t02- The Other One ->
d3t03 - Stella Blue* ->
d3t04 - Good Lovin'

Encore
------
d3t05 - U.S. Blues


*includes Wheel tease


Notes:

1) "Caution: Will steal face"

2) Filled matrix requests:

7/27/73 (Bill Zormeir [aka Zman])
5/9/77 (Eric_A_DeadHead via matrix request list)
6/7/77 (Rob Bertrando)
6/9/77 (Rob Bertrando)
3/9/81 (frankie5)
5/9/81 (noahdb)
5/12/81 (fishmanj)
9/20/82 (muziklvr)
9/21/82 (billydlions)
10/9/82
9/2/83 (billydlions)
9/6/83 (Rob Bertrando)
10/15/83 (Sporeboy36)
3/28/85
6/24/85
6/30/85 (Sporeboy36)
7/1/85
4/8/89 (gratefulydeadicated [aka Ron])
3/20/92 (ljg)


Thank you for the requests.



    length     expanded size    cdr  WAVE problems  fmt   ratio  filename
     0:47.21        8340236 B   ---   --   ---xx  gd81-03-09d1t01.flac
    10:12.66      108112076 B   ---   --   ---xx  gd81-03-09d1t02.flac
     7:56.35       84048764 B   ---   --   ---xx  gd81-03-09d1t03.flac
    10:24.70      110238284 B   ---   --   ---xx  gd81-03-09d1t04.flac
     7:46.42       82301228 B   ---   --   ---xx  gd81-03-09d1t05.flac
     6:19.14       66888572 B   ---   --   ---xx  gd81-03-09d1t06.flac
     8:10.49       86551292 B   ---   --   ---xx  gd81-03-09d1t07.flac
     4:16.24       45214892 B   ---   --   ---xx  gd81-03-09d1t08.flac
    12:05.32      127965308 B   ---   --   ---xx  gd81-03-09d1t09.flac
     7:19.40       77533724 B   ---   --   ---xx  gd81-03-09d1t10.flac
     1:41.18       17858780 B   ---   --   ---xx  gd81-03-09d2t01.flac
     9:06.31       96387356 B   ---   --   ---xx  gd81-03-09d2t02.flac
     6:46.68       71778380 B   ---   --   ---xx  gd81-03-09d2t03.flac
     8:53.05       94033004 B   ---   --   ---xx  gd81-03-09d2t04.flac
    10:37.50      112484444 B   ---   --   ---xx  gd81-03-09d2t05.flac
    14:06.44      149337932 B   ---   --   ---xx  gd81-03-09d2t06.flac
    11:52.16      125634476 B   ---   --   ---xx  gd81-03-09d2t07.flac
    10:39.58      112856060 B   ---   --   ---xx  gd81-03-09d2t08.flac
     6:51.63       72648620 B   ---   --   ---xx  gd81-03-09d3t01.flac
     8:34.44       90773132 B   ---   --   ---xx  gd81-03-09d3t02.flac
     9:56.22      105186188 B   ---   --   ---xx  gd81-03-09d3t03.flac
     6:48.11       71997116 B   ---   --   ---xx  gd81-03-09d3t04.flac
     5:27.05       57694604 B   ---   --   ---xx  gd81-03-09d3t05.flac
   186:41.03     1975864468 B                            0.5822  (23 files)
Show Checksums
ffp
gd81-03-09d1t01.flac:180004469babff6e85b459f67be89a96
gd81-03-09d1t02.flac:5b7da841aa07cf691e2939adc5dae298
gd81-03-09d1t03.flac:82ad7f73c8d7369ba98d850a1dfe092e
gd81-03-09d1t04.flac:5ad323f71f5904a75d6bdcb4aad468bb
gd81-03-09d1t05.flac:4880774b57c273f41e0eb0ab6b5ce4ef
gd81-03-09d1t06.flac:236db7f5d65e697e9384be0b8c291751
gd81-03-09d1t07.flac:741141fe07cb2c3826cb072548bcb7f1
gd81-03-09d1t08.flac:6d5e41f2a316338cd199b4eaef48a977
gd81-03-09d1t09.flac:d6a7511bc8704e54690fa6676f647217
gd81-03-09d1t10.flac:d3d534b6d7f6cd183682e7e8f2298bdc
gd81-03-09d2t01.flac:2d0fb69adad60ddaf0054808366c1286
gd81-03-09d2t02.flac:2311888551c47a6c881b69b6be8421da
gd81-03-09d2t03.flac:ffc60b69a35f752472c088d6df7d280d
gd81-03-09d2t04.flac:9ad5f8a12e5fb56cce51340af86e79f9
gd81-03-09d2t05.flac:0169185b932ca54aaef1ef7fdd749c8a
gd81-03-09d2t06.flac:3b4a033c6dd2ba5ecea054a511d67cd7
gd81-03-09d2t07.flac:19ae9047e1310be93fbfce0944fe0b8d
gd81-03-09d2t08.flac:949cf389e71fc42082de1e408fcee987
gd81-03-09d3t01.flac:62ac44ead567b422a0814f8ab05ca943
gd81-03-09d3t02.flac:edc9a2074b6daf330b526a0025a1c9e6
gd81-03-09d3t03.flac:a1d44f8b414175012007ab0193080e45
gd81-03-09d3t04.flac:2d884cc7cdbcf272815b69c603e70306
gd81-03-09d3t05.flac:b4560b68ae8a9507679b9432bf2d453e
flac-md5
690ae2ebc0199f3ae5d6190f2401aa0d *gd81-03-09d1t01.flac
8fb87c1756a8a69017b5f0a75af2ef3a *gd81-03-09d1t02.flac
1d96241a481896ce903fccb5304314f6 *gd81-03-09d1t03.flac
ed08d3f90321b4ccbe0eebea7f906533 *gd81-03-09d1t04.flac
903b17d8c39b8980f534a8cbaee88372 *gd81-03-09d1t05.flac
b9fa9882af7c7290e92325f5c9e1b558 *gd81-03-09d1t06.flac
223f13612d39adf1cf8d71f6d43c1318 *gd81-03-09d1t07.flac
a361040d4c11527e2081d84837bc7fc2 *gd81-03-09d1t08.flac
c5628e2941428953d00437faf8294bd5 *gd81-03-09d1t09.flac
24a4d9e88bcd849e469c37f861e737ac *gd81-03-09d1t10.flac
34416ebc2f4832ed53251baf69c82d5c *gd81-03-09d2t01.flac
067de7d4ea1a12674cf9ed4ca5954b31 *gd81-03-09d2t02.flac
2de446511d322d02749ba9f5bbb0eb17 *gd81-03-09d2t03.flac
115f2f7a0b4d2111273846ba75fb6ac4 *gd81-03-09d2t04.flac
84245b4fc1d84278f2483243023af5f2 *gd81-03-09d2t05.flac
0467c28d4cbf0bd0ba32f3e845587852 *gd81-03-09d2t06.flac
48293001d566e7f87430b08982024f3f *gd81-03-09d2t07.flac
5d9be0dd90426c23158b86152e2cdd1b *gd81-03-09d2t08.flac
b705ce92a55ab4b0b89436ea19e86b00 *gd81-03-09d3t01.flac
3f5ee2ab0f2dbb3fd854dc8f53556334 *gd81-03-09d3t02.flac
142aa768ecffb4485c30aea6369671f7 *gd81-03-09d3t03.flac
3d5b3a19c855463c2ef198ad67e39171 *gd81-03-09d3t04.flac
65abbeb8000f4eefd9096a56e3ac6bae *gd81-03-09d3t05.flac

Comments
Add Comment
Other Sources (comments)
Recording by Barry... (0) Sources: Master Soundboard... (1) Recording by Barry... (0) flac16; Recording... (0) flac16; Recording by... (0) flac24/96; Recording... (0) flac16; Recording... (1) flac24; Recording... (0) flac24; Matrix by... (0) flac16; Recording by... (0)
Date User Comment
03/20/2010 charliemiller But mix, but there appears to be some phasing issue.