Browse Collections Artists Sources   Search Dates

Add Show    List Management    Help


Grateful Dead 10/23/80
Radio City Music Hall, New York, NY
Comments Add Comment    Source Collectors    Add to Collection    Add to Want List    History
Source # 101256 Other Sources
Entered by dr.unclear
Checksums ffp , flac-md5
Disc Counts 2 / 3
Media Size
Date Circulated
Date Added
09/10/2009
09/10/2009
Source Summary flac16; Recording Info:(FOB) Sony ECM-280 -> Cassette Master (Sony TC-D5M/Maxell UDXLII-C90/Dolby B); Transfer Info:Cassette Master (Nakamichi DR-1/Dolby B) -> Sound Devices 744T (24bit/96k) -> Adobe Audition v1.5 -> Samplitude Professional v10.21 -> FLAC/16; Taped By Jim Wise; All Transfers and Mastering By Charlie Miller 
  Archive
Source Information - Download Text | Download Zip
Grateful Dead - October 23, 1980
Radio City Music Hall - New York, NY

Recording Info:
(FOB) Sony ECM-280 -> Cassette Master (Sony TC-D5M/Maxell UDXLII-C90/Dolby B)

Transfer Info:
Cassette Master (Nakamichi DR-1/Dolby B) -> Sound Devices 744T (24bit/96k) ->
Adobe Audition v1.5 -> Samplitude Professional v10.21 -> FLAC/16
(3 Discs Audio / 2 Discs FLAC)

All Transfers and Mastering By Charlie Miller
[email protected]
September 9, 2009

Notes:
-- Discs 2 and 3 are seamless
-- Recorded By Jim Wise
-- Thanks to Jim Wise for lending me his master cassettes
-- Thanks to Joe B. Jones for his help with the pitch correction

Set 1:
d1t01 - Tuning
d1t02 - On The Road Again
d1t03 - It Must Have Been The Roses
d1t04 - Dark Hollow
d1t05 - Jack-A-Roe
d1t06 - Cassidy
d1t07 - China Doll
d1t08 - Monkey And The Engineer ->
d1t09 - Oh Babe It Ain't No Lie ->
d1t10 - Ripple

Set 2:
d2t01 - Tuning
d2t02 - Feel Like A Stranger
d2t03 - Tennessee Jed
d2t04 - Mama Tried ->
d2t05 - Mexicali Blues
d2t06 - Althea
d2t07 - Little Red Rooster
d2t08 - Big Railroad Blues
d2t09 - The Music Never Stopped

Set 3:
d2t10 - Tuning
d2t11 - Samson And Delilah
d2t12 - Ship Of Fools
d3t01 - Estimated Prophet ->
d3t02 - Terrapin Station ->
d3t03 - Drums ->
d3t04 - Space ->
d3t05 - The Wheel ->
d3t06 - Truckin' ->
d3t07 - Wharf Rat ->
d3t08 - Sugar Magnolia

Encore:
d3t09 - Casey Jones


SHNTOOL OUTPUT:
    length     expanded size   cdr  WAVE problems filename
     0:45.63        8086220    ---   --   -----   gd80-10-23d1t01.wav
     3:52.55       41054204    ---   --   -----   gd80-10-23d1t02.wav
     8:04.04       85387052    ---   --   -----   gd80-10-23d1t03.wav
     5:24.15       57188924    ---   --   -----   gd80-10-23d1t04.wav
     5:42.54       60455852    ---   --   -----   gd80-10-23d1t05.wav
     5:39.69       59961932    ---   --   -----   gd80-10-23d1t06.wav
     5:40.46       60084236    ---   --   -----   gd80-10-23d1t07.wav
     2:29.02       26288348    ---   --   -----   gd80-10-23d1t08.wav
     7:12.54       76331852    ---   --   -----   gd80-10-23d1t09.wav
     4:41.50       49686044    ---   --   -----   gd80-10-23d1t10.wav
     1:38.18       17329580    ---   --   -----   gd80-10-23d2t01.wav
     8:42.43       92181980    ---   --   -----   gd80-10-23d2t02.wav
     9:16.46       98186636    ---   --   -----   gd80-10-23d2t03.wav
     2:33.63       27137420    ---   --   -----   gd80-10-23d2t04.wav
     4:48.30       50873804    ---   --   -----   gd80-10-23d2t05.wav
     8:34.46       90777836    ---   --   -----   gd80-10-23d2t06.wav
     9:20.46       98892236    ---   --   -----   gd80-10-23d2t07.wav
     3:31.07       37236908    ---   --   -----   gd80-10-23d2t08.wav
     7:45.17       82066028    ---   --   -----   gd80-10-23d2t09.wav
     1:22.16       14502476    ---   --   -----   gd80-10-23d2t10.wav
     7:27.22       78902588    ---   --   -----   gd80-10-23d2t11.wav
    10:58.58      116207660    ---   --   -----   gd80-10-23d2t12.wav
    10:24.74      110247692    ---   --   -----   gd80-10-23d3t01.wav
    12:13.06      129315356    ---   --   -----   gd80-10-23d3t02.wav
     8:34.32       90744908    ---   --   -----   gd80-10-23d3t03.wav
     2:26.67       25912028    ---   --   -----   gd80-10-23d3t04.wav
     4:48.73       50974940    ---   --   -----   gd80-10-23d3t05.wav
     6:50.43       72425180    ---   --   -----   gd80-10-23d3t06.wav
    10:14.45      108415484    ---   --   -----   gd80-10-23d3t07.wav
     8:22.06       88566956    ---   --   -----   gd80-10-23d3t08.wav
     5:44.38       60771020    ---   --   -----   gd80-10-23d3t09.wav
   195:13.08     2066193380 B                     (totals for 31 files)
Show Checksums
ffp
gd80-10-23d1t01.flac:0aed9cf67400719703eb0d507171d0b4
gd80-10-23d1t02.flac:817b7a80321ef1bfb865f0cecb402482
gd80-10-23d1t03.flac:ffc2b8a455be58488be7dbefc1225b72
gd80-10-23d1t04.flac:59bc00ed1579b17489bfe60909bd1773
gd80-10-23d1t05.flac:bbfca07cbfc8269757454c10f7a8074c
gd80-10-23d1t06.flac:09c690271f12c7eb7812e0aa8933ad1e
gd80-10-23d1t07.flac:ea7b749d8806271cfb159a7b850e50db
gd80-10-23d1t08.flac:414d98f42472942a7f8b9e2668057f56
gd80-10-23d1t09.flac:f518bc2f1ff382fd7c31e93505331847
gd80-10-23d1t10.flac:034c3f7faa521170dc1c2004663b930f
gd80-10-23d2t01.flac:a3922fbb71599fe4de98d4a41d048265
gd80-10-23d2t02.flac:7aacb89e643a416c57c57083c8b10cf4
gd80-10-23d2t03.flac:9d7e39c1308ffa3cd4b1292efac7f8ee
gd80-10-23d2t04.flac:eb8cfcdf93f5a79e14264b3039797351
gd80-10-23d2t05.flac:d151640bae90b4682152f7f679a2ad1a
gd80-10-23d2t06.flac:584836dfe2416b00ee0d6f85df3099ec
gd80-10-23d2t07.flac:52fc37c096a1f0357643d030dbcd5186
gd80-10-23d2t08.flac:925199b1e386eb55e0e35f74758a0ff3
gd80-10-23d2t09.flac:75532199fdff49d4c61b25615879df1d
gd80-10-23d2t10.flac:a31bc0e53997912c2af4cf5719680b82
gd80-10-23d2t11.flac:97d4afd6b8ab140a919572b8fbf390df
gd80-10-23d2t12.flac:d0bf2ba3fa53d4e973bac0949143ba42
gd80-10-23d3t01.flac:fd7b2fedfb21eafea793364d333cbdaa
gd80-10-23d3t02.flac:3e90f32a8daa5c16bc3c6c8f98c1347f
gd80-10-23d3t03.flac:5de619831a8edc0392dd07902755ec57
gd80-10-23d3t04.flac:da059d0f1663b963f25b2666da2d1d44
gd80-10-23d3t05.flac:336ba7796301af175176b81673b66d56
gd80-10-23d3t06.flac:a0f2ec1b72ad7d06c89eff3e7ace8c64
gd80-10-23d3t07.flac:5d78cf27694fbc1fe06561f4e8c1b507
gd80-10-23d3t08.flac:901f1d57b2d709c2e291424e66ec713d
gd80-10-23d3t09.flac:fdc904be1380dc580ddf31e9da617201
flac-md5
1ff5b2ff464078fdb4281cc176cee1f3 *gd80-10-23d1t01.flac
71cd480d2039f14658510ef10cf1bc09 *gd80-10-23d1t02.flac
6d714ed40ae801afab7f81dc66855961 *gd80-10-23d1t03.flac
88d455ceed3bc4ffcba950271782c136 *gd80-10-23d1t04.flac
a40d26119f7667efe9e5352e78c7cc1d *gd80-10-23d1t05.flac
94b85a70571963a5ec64542af2f60a0e *gd80-10-23d1t06.flac
c6c2bbf41662576d912e86d7f26901f4 *gd80-10-23d1t07.flac
b56d3ee4a6179acab27895bd01feb764 *gd80-10-23d1t08.flac
fcf7c57bff723cc2b2ab9a1b3b195f99 *gd80-10-23d1t09.flac
904740a508fb529df6f464517df13ce9 *gd80-10-23d1t10.flac
f403f33ac92dc0d1f9b8b7dd48110f79 *gd80-10-23d2t01.flac
f8e77fa117b42bf1c596044f82e00700 *gd80-10-23d2t02.flac
2bd470ad42d79689c358f492b237d3df *gd80-10-23d2t03.flac
7d2346707761f479d5678496e04006e2 *gd80-10-23d2t04.flac
2b550ced34f74189103a4fe0a29e8080 *gd80-10-23d2t05.flac
c72709f8ae30ea3e780ab45a82a73bf0 *gd80-10-23d2t06.flac
2d20256c854a24f3e83bb22cac5fa229 *gd80-10-23d2t07.flac
62831315ebc976887835a744f5ef06de *gd80-10-23d2t08.flac
700e5671c94426aed269e510fff56ba3 *gd80-10-23d2t09.flac
68d713ace738cf2f43cd3d5a663cf6bd *gd80-10-23d2t10.flac
28dc65d74b11be268aeb0f8550954295 *gd80-10-23d2t11.flac
c208c508a7cc9ee1953899b23828a368 *gd80-10-23d2t12.flac
5530b5cd6cde31adef111872a9e7cf6c *gd80-10-23d3t01.flac
f71ac930e253ceacb501ff35d92359e8 *gd80-10-23d3t02.flac
e493aba8c522dbf51b9e31389c4e649c *gd80-10-23d3t03.flac
c94b92e36b4d524dbb35b89307f4f2b0 *gd80-10-23d3t04.flac
3865a46c8621dc338c4c987c76ffb386 *gd80-10-23d3t05.flac
1f79990ff8d2f2a51ff8d8b051a06c22 *gd80-10-23d3t06.flac
0ad1d59a0e65c6e50823b27ead4aaad3 *gd80-10-23d3t07.flac
6ca1b5b5b8c4cc2b8c5ebad3e59446e0 *gd80-10-23d3t08.flac
15a1b4889b94329d2b23ead648ed7c2b *gd80-10-23d3t09.flac

Comments
Add Comment
Other Sources (comments)
AUD(Sony... (0) Recording by Mark Cohen:... (1) flac16; (FOB)... (0) flac24; (FOB)... (0) flac24; (FOB)... (0) flac16; Loge Dead... (0)
Date User Comment