Browse Collections Artists Sources   Search Dates

Add Show    List Management    Help


Disco Biscuits 01/16/09
Calvin Theater, Northampton, MA
Comments Add Comment    Source Collectors    Add to Collection    Add to Want List    History
Source # 101259 Other Sources
Entered by SailorSaint
Checksums ffp
Disc Counts 2 / 3
Media Size
Date Circulated
Date Added

09/10/2009
Source Summary Schoeps mk41 (mics in hat) > kc5 > cmc6 > Lunatec V3 > MT II @ 24 bit/ 48 kHz CF > Sound Studio 3 > (fades, normalize peak, tracking) > xAct (sector alignment, encode, tag, fingerprint) 
  Archive
Source Information - Download Text | Download Zip
The Disco Biscuits
January 16, 2009
Calvin Theater
Northampton, MA

Source: {16 bit} Schoeps mk41 > kc5 > cmc6 > Lunatec V3 > MT II @ 24 bit/ 48 kHz
Lineage: CF > Sound Studio 3 > (fades, normalize peak, tracking) > xAct (sector alignment, encode, tag, fingerprint)
Location: DFC/FOB (mics in hat)
Recorded by Jesse Hurlburt and Matt Quinn


D1
Set I:
01 Intro
02 Uber Glue >
03 Spacebirdmatingcall >
04 Air Song (1) >
05 Spacebirdmatingcall
06 Tamarin Alley

Set II:
07 Banter
08 M80

D2
01 Little Shimmy in a Conga Line (2) >
02 Spraypaint (2)
03 Triumph >
04 Basis For a Day >
05 And the Ladies Were the Rest of the Night(1) >
06 Basis For a Day

D3
01 -encore break-
02 E: Munchkin Invasion

(1) inverted
(2) dyslexic completion of 12/27 version

    length     expanded size    cdr  WAVE problems  fmt   ratio  filename
     1:36.73       17106140 B   ---   --   ---xx  db2009-01-16.mk41.d1t01.flac
    11:17.61      119566316 B   ---   --   ---xx  db2009-01-16.mk41.d1t02.flac
    15:09.36      160432316 B   ---   --   ---xx  db2009-01-16.mk41.d1t03.flac
    20:21.57      215518508 B   ---   --   ---xx  db2009-01-16.mk41.d1t04.flac
    11:34.16      122459276 B   ---   --   ---xx  db2009-01-16.mk41.d1t05.flac
     6:33.52       69447548 B   ---   --   ---xx  db2009-01-16.mk41.d1t06.flac
     2:48.39       29726972 B   ---   --   ---xx  db2009-01-16.mk41.d1t07.flac
     7:35.50       80379644 B   ---   --   ---xx  db2009-01-16.mk41.d1t08.flac
    19:00.00      201096044 B   ---   --   ---xx  db2009-01-16.mk41.d2t01.flac
     7:03.48       74730140 B   ---   --   ---xx  db2009-01-16.mk41.d2t02.flac
    13:09.47      139290188 B   ---   --   ---xx  db2009-01-16.mk41.d2t03.flac
    14:36.16      154564076 B   ---   --   ---xx  db2009-01-16.mk41.d2t04.flac
    11:08.05      117847004 B   ---   --   ---xx  db2009-01-16.mk41.d2t05.flac
     9:49.09      103920812 B   ---   --   ---xx  db2009-01-16.mk41.d2t06.flac
     4:41.06       49582556 B   ---   --   ---xx  db2009-01-16.mk41.d3t01.flac
    10:10.27      107667548 B   ---   --   ---xx  db2009-01-16.mk41.d3t02.flac
   166:36.17     1763335088 B                            0.5503  (16 files)
Show Checksums
ffp
db2009-01-16.mk41.d1t01.flac:5db07209c1024ac57453c430204669df
db2009-01-16.mk41.d1t02.flac:eb818d0605ca6b0d001c2bb115e3cb9c
db2009-01-16.mk41.d1t03.flac:49c0e9a7726057a1a81a1e20c8caf227
db2009-01-16.mk41.d1t04.flac:6601185e0226832b64ce4cd055bbce51
db2009-01-16.mk41.d1t05.flac:6925222d05c2f25d8968b4c51d235e96
db2009-01-16.mk41.d1t06.flac:5995db340f775117b5e2a381b8a89f28
db2009-01-16.mk41.d1t07.flac:f84af5d6e6e9ddc27af470e2e7428dba
db2009-01-16.mk41.d1t08.flac:d7b57af489388f2977ffc034040ee180
db2009-01-16.mk41.d2t01.flac:e6954f8d50ddd1cf0a9531a798da381e
db2009-01-16.mk41.d2t02.flac:481a2402fc5bae54d96f1384bc6d26ba
db2009-01-16.mk41.d2t03.flac:b56a0bab566c4349b59aeafdec3273d5
db2009-01-16.mk41.d2t04.flac:36aeffbad1823c98805dfd2931f930db
db2009-01-16.mk41.d2t05.flac:62f1e45e26c23e8282cd7954dc895b36
db2009-01-16.mk41.d2t06.flac:6a6d68b74b712eabc8dbaa85c9c3545a
db2009-01-16.mk41.d3t01.flac:e23e0a69c6ba4c0bd7bdce34236e7be0
db2009-01-16.mk41.d3t02.flac:db9dec49aaa4b766f456d19e1263eb59

Comments
Add Comment
Date User Comment