Browse Collections Artists Sources   Search Dates

Add Show    List Management    Help


Disco Biscuits 01/17/09
Calvin Theater, Northampton, MA
Comments Add Comment    Source Collectors    Add to Collection    Add to Want List    History
Source # 101260 Other Sources
Entered by SailorSaint
Checksums ffp
Disc Counts 2 / 3
Media Size
Date Circulated
Date Added

09/10/2009
Source Summary {16 bit} Schoeps mk41 (mics in hat) > kc5 > cmc6 > Lunatec V3 > MT II @ 24 bit/ 48 kHz CF > Sound Studio 3 > (fades, normalize peak, tracking) > xAct (sector alignment, encode, tag, fingerprint) 
  Archive
Source Information - Download Text | Download Zip
The Disco Biscuits
January 17, 2009
Calvin Theatre
Northampton, MA

Source: {16 bit} Schoeps mk41 > kc5 > cmc6 > Lunatec V3 > MT II @ 24 bit/ 48 kHz
Lineage: CF > Sound Studio 3 > (fades, normalize peak, tracking) > xAct (sector alignment, encode, tag, fingerprint)
Location: DFC/FOB (mics in hat)
Recorded by Bros. Hurlburt


Set I:
01 -intro-
02 New Autumn Hop
03 House Dog Party Favor >
04 Crystal Ball (1) >
05 House Dog Party Favor (2) >
06 Above The Waves (3)

Set II:
07 -crowd-
08 Killing In The Name >
09 Crickets (1) >
10 King of The World (4) >
11 Gangster >
12 I-Man
13 -encore break-
14 Mr. Don

1 inverted
2 unfinished
3 ending only
4 industrial jam

    length     expanded size    cdr  WAVE problems  fmt   ratio  filename
     0:51.11        9022316 B   ---   --   ---xx  db2009-01-17.mk41.s1t01.flac
     9:39.37      102222668 B   ---   --   ---xx  db2009-01-17.mk41.s1t02.flac
     8:03.37       85288268 B   ---   --   ---xx  db2009-01-17.mk41.s1t03.flac
    21:40.42      229418828 B   ---   --   ---xx  db2009-01-17.mk41.s1t04.flac
    12:40.13      134094620 B   ---   --   ---xx  db2009-01-17.mk41.s1t05.flac
    14:44.13      155968220 B   ---   --   ---xx  db2009-01-17.mk41.s1t06.flac
     1:07.71       11985836 B   ---   --   ---xx  db2009-01-17.mk41.s2t07.flac
     9:50.22      104127788 B   ---   --   ---xx  db2009-01-17.mk41.s2t08.flac
    32:03.66      339372476 B   ---   --   ---xx  db2009-01-17.mk41.s2t09.flac
    17:12.70      182209484 B   ---   --   ---xx  db2009-01-17.mk41.s2t10.flac
     9:15.71       98069036 B   ---   --   ---xx  db2009-01-17.mk41.s2t11.flac
    18:49.28      199221500 B   ---   --   ---xx  db2009-01-17.mk41.s2t12.flac
     2:29.64       26434172 B   ---   --   ---xx  db2009-01-17.mk41.s2t13.flac
    10:31.41      111404876 B   ---   --   ---xx  db2009-01-17.mk41.s2t14.flac
   169:00.61     1788840088 B                            0.5502  (14 files)
Show Checksums
ffp
db2009-01-17.mk41.s1t01.flac:6361c4cbc8520c31e8416ba452bc2b27
db2009-01-17.mk41.s1t02.flac:e0c371582ada1708abe1d4d5a23d8dd5
db2009-01-17.mk41.s1t03.flac:b9a61c65025b7aadf3598192e281d551
db2009-01-17.mk41.s1t04.flac:7691b5c96753671e6bd89f2b20ef2422
db2009-01-17.mk41.s1t05.flac:57a34ccc58668ef4f22eb79938edfcc5
db2009-01-17.mk41.s1t06.flac:fad67d5ee4ac31a523270292b6e1ac15
db2009-01-17.mk41.s2t07.flac:a7005c50403228abe3e24304d0ed939b
db2009-01-17.mk41.s2t08.flac:93ed9c939511bbfbd620bf07d264f1e1
db2009-01-17.mk41.s2t09.flac:1176c98e6cbd22911c042ee475c01c5f
db2009-01-17.mk41.s2t10.flac:612b5f68faab882eb83812751ad58497
db2009-01-17.mk41.s2t11.flac:f43067f7e2572408b04358333638da0a
db2009-01-17.mk41.s2t12.flac:361f8d448d840aee66eab489f7de97c7
db2009-01-17.mk41.s2t13.flac:87380a7065e5061c5b4135d0c353b991
db2009-01-17.mk41.s2t14.flac:b6bdf3dc3dac55d7a70db4a650a7ce8f

Comments
Add Comment
Date User Comment