Browse Collections Artists Sources   Search Dates

Add Show    List Management    Help


Grateful Dead 10/27/80
Radio City Music Hall, New York, NY
Comments Add Comment    Source Collectors    Add to Collection    Add to Want List    History
Source # 101293 Other Sources
Entered by dr.unclear
Checksums ffp , flac-md5
Disc Counts 2 / 3
Media Size
Date Circulated
Date Added
09/11/2009
09/11/2009
Source Summary flac16; Recording Info: Sennheiser 441 -> Cassette Master (Sony TC-D5M/Maxell UDXLII-C90/Dolby B); Transfer Info: Cassette Master (Nakamichi DR-1/Dolby B) -> Sound Devices 744T (24bit/96k) -> Adobe Audition v1.5 -> Samplitude Professional v10.21 -> FLAC/16; Taped By Jim Wise; All Transfers and Mastering By Charlie Miller 
  Archive
Source Information - Download Text | Download Zip
Grateful Dead - October 27, 1980
Radio City Music Hall - New York, NY

Recording Info:
Sennheiser 441 -> Cassette Master (Sony TC-D5M/Maxell UDXLII-C90/Dolby B)

Transfer Info:
Cassette Master (Nakamichi DR-1/Dolby B) -> Sound Devices 744T (24bit/96k) ->
Adobe Audition v1.5 -> Samplitude Professional v10.21 -> FLAC/16
(3 Discs Audio / 2 Discs FLAC)

All Transfers and Mastering By Charlie Miller
[email protected]
September 10, 2009

Notes:
-- Recorded By Jim Wise (center lodge)
-- Thanks to Jim Wise for lending me his master cassettes
-- Thanks to Joe B. Jones for his help with the pitch correction

Set 1:
d1t01 - Tuning
d1t02 - The Race Is On
d1t03 - I've Been All Around This World
d1t04 - Monkey And The Engineer
d1t05 - To Lay Me Down
d1t06 - Heaven Help The Fool
d1t07 - Rosalie McFall
d1t08 - On The Road Again
d1t09 - Bird Song
d1t10 - Ripple

Set 2:
d2t01 - Tuning
d2t02 - Alabama Getaway ->
d2t03 - Greatest Story Ever Told
d2t04 - Friend Of The Devil
d2t05 - New Minglewood Blues
d2t06 - Peggy-O
d2t07 - Passenger
d2t08 - Row Jimmy
d2t09 - Lost Sailor ->
d2t10 - Saint Of Circumstance ->
d2t11 - Deal

Set 3:
d3t01 - Tuning
d3t02 - Truckin' ->
d3t03 - Scarlet Begonias ->
d3t04 - Fire On The Mountain ->
d3t05 - Drums ->
d3t06 - Space ->
d3t07 - Wharf Rat ->
d3t08 - I Need A Miracle ->
d3t09 - Bertha ->
d3t10 - Johnny B. Goode

Encore:
d3t11 - Casey Jones


SHNTOOL OUTPUT:
    length     expanded size   cdr  WAVE problems filename
     2:55.32       30945308    ---   --   -----   gd80-10-27d1t01.wav
     3:48.59       40358012    ---   --   -----   gd80-10-27d1t02.wav
     5:49.64       61714172    ---   --   -----   gd80-10-27d1t03.wav
     3:34.02       37754348    ---   --   -----   gd80-10-27d1t04.wav
     9:37.31      101855756    ---   --   -----   gd80-10-27d1t05.wav
     7:41.45       81426284    ---   --   -----   gd80-10-27d1t06.wav
     4:27.01       47101196    ---   --   -----   gd80-10-27d1t07.wav
     2:59.55       31705004    ---   --   -----   gd80-10-27d1t08.wav
    11:18.21      119648636    ---   --   -----   gd80-10-27d1t09.wav
     4:40.72       49561388    ---   --   -----   gd80-10-27d1t10.wav
     1:30.73       16047740    ---   --   -----   gd80-10-27d2t01.wav
     4:36.56       48818156    ---   --   -----   gd80-10-27d2t02.wav
     4:51.62       51478268    ---   --   -----   gd80-10-27d2t03.wav
    10:23.55      110026604    ---   --   -----   gd80-10-27d2t04.wav
     7:47.46       82487036    ---   --   -----   gd80-10-27d2t05.wav
     6:34.35       69583964    ---   --   -----   gd80-10-27d2t06.wav
     6:20.17       67072028    ---   --   -----   gd80-10-27d2t07.wav
    10:32.47      111595388    ---   --   -----   gd80-10-27d2t08.wav
     6:17.48       66615740    ---   --   -----   gd80-10-27d2t09.wav
     6:36.71       70021436    ---   --   -----   gd80-10-27d2t10.wav
     6:34.13       69532220    ---   --   -----   gd80-10-27d2t11.wav
     2:05.00       22050044    ---   --   -----   gd80-10-27d3t01.wav
     8:09.21       86309036    ---   --   -----   gd80-10-27d3t02.wav
     8:20.54       88327052    ---   --   -----   gd80-10-27d3t03.wav
     9:15.05       97913804    ---   --   -----   gd80-10-27d3t04.wav
    12:18.53      130307900    ---   --   -----   gd80-10-27d3t05.wav
     4:53.10       51708764    ---   --   -----   gd80-10-27d3t06.wav
    10:11.56      107912156    ---   --   -----   gd80-10-27d3t07.wav
     3:46.61       40009916    ---   --   -----   gd80-10-27d3t08.wav
     6:27.06       68280956    ---   --   -----   gd80-10-27d3t09.wav
     4:49.40       51073724    ---   --   -----   gd80-10-27d3t10.wav
     5:39.47       59910188    ---   --   -----   gd80-10-27d3t11.wav
   204:56.58     2169152224 B                     (totals for 32 files)
Show Checksums
ffp
gd80-10-27d1t01.flac:2815dfab234e389bd8eeb756e9bf6660
gd80-10-27d1t02.flac:85c8b582dc93698516086404720d00c7
gd80-10-27d1t03.flac:6780b6f0441b609490582f27abac7896
gd80-10-27d1t04.flac:ce5018912c69531dda60eda4ed4a3f55
gd80-10-27d1t05.flac:6cc26ed0e0a40cb7e25e82a107558fb9
gd80-10-27d1t06.flac:86c885b3ac0ba61b6e7b78296204875b
gd80-10-27d1t07.flac:8c7a6caa4acea1e8efe39c1cd5173c6d
gd80-10-27d1t08.flac:275d76fbd2f73d6f718c93706f4205c2
gd80-10-27d1t09.flac:c13d22a6ec9933213f4328bc1853ec75
gd80-10-27d1t10.flac:c8bf0dcd1a64e8caac90ea1efe436d1f
gd80-10-27d2t01.flac:326f5367017d2bbec417d020d6f64b18
gd80-10-27d2t02.flac:7026964bf1f52a8f6f1f727e88fa620b
gd80-10-27d2t03.flac:9802f0df30e623f8ef3770384b27db8e
gd80-10-27d2t04.flac:2c347053cedf4465b2f5415208166d34
gd80-10-27d2t05.flac:001879b6be6403e4c07e55a3b77e207a
gd80-10-27d2t06.flac:72608134f9431206562ca0ed210e10fa
gd80-10-27d2t07.flac:0f05385e41e718cf36e59dd5dbd0aa47
gd80-10-27d2t08.flac:e8f9f77c8c2a4ae3ecc17ab23f89fb91
gd80-10-27d2t09.flac:49a7d52a10625a822174b6d5ea07abee
gd80-10-27d2t10.flac:93d3a20fe7a003aa352505a6c598cb21
gd80-10-27d2t11.flac:05b1c70aa932e10e0944413c261ed49c
gd80-10-27d3t01.flac:7c8002c458b2825fe8032acc36362d8f
gd80-10-27d3t02.flac:76aae8a5ecade45eacb317a2edb7ad2b
gd80-10-27d3t03.flac:ed7d823162933491a32eb6adac9d15d6
gd80-10-27d3t04.flac:2bff150b18f1f3b23553cdf9ac2e588b
gd80-10-27d3t05.flac:f5159c219cd52fb1880f42c2f94451d5
gd80-10-27d3t06.flac:30e0ff4cfd17cccbd7791bce0a3f1c4d
gd80-10-27d3t07.flac:5c18e6bbd86a39e316c2999ca81566bf
gd80-10-27d3t08.flac:e54886aad9e836ed15e56d34bea253a7
gd80-10-27d3t09.flac:4e4f4fd3861a02f68bb560c581b417f9
gd80-10-27d3t10.flac:1b1bba1a250cbbd497c000e11553ace3
gd80-10-27d3t11.flac:728db1a66cb510ed13e5725d0a68f096
flac-md5
20f7893561ec391e8baf430da3354df4 *gd80-10-27d1t01.flac
961acacdab64f5424bf2bf85dd37f249 *gd80-10-27d1t02.flac
50440c1b2b2351cc3a5bcaa44eabf06c *gd80-10-27d1t03.flac
485ab992c7eba9126e63f3d5e8667f08 *gd80-10-27d1t04.flac
266235c97fdce39943d23de83a95670e *gd80-10-27d1t05.flac
343e2b6a609e779b98b12cae8213d261 *gd80-10-27d1t06.flac
af87c7179e6d549b0f8868f5195bad69 *gd80-10-27d1t07.flac
0303d66495af0d4a34b8385f2e0ebbc1 *gd80-10-27d1t08.flac
a245c73896ba2e496d7f7ebe13f4d613 *gd80-10-27d1t09.flac
d663c5826c7d0533aa46f887b6530f3d *gd80-10-27d1t10.flac
0fa60a06b05d532408a88ca4f7a8fd91 *gd80-10-27d2t01.flac
a17325474efa6e4881e53e5435233711 *gd80-10-27d2t02.flac
c3d013c758d94895226b50a0b7a56e6c *gd80-10-27d2t03.flac
5a39ab4f815e71f0460c41eb212b4542 *gd80-10-27d2t04.flac
0781746874db8b575af38fab3b5c3ac7 *gd80-10-27d2t05.flac
42d33436ddcced68a0d8151613d2a7c9 *gd80-10-27d2t06.flac
08f4f99185b70dd0efb5564211494459 *gd80-10-27d2t07.flac
5e8ffe8f47802befe44ec092319b8d78 *gd80-10-27d2t08.flac
00cf5f9b0fb83a1a682f5d886bd0a9d3 *gd80-10-27d2t09.flac
27631830f4cf05fdae56f400a123dc56 *gd80-10-27d2t10.flac
4f57808e5e6906f5a4e0ce84fcefe520 *gd80-10-27d2t11.flac
4d74fec591b2497518507d50ca08dfce *gd80-10-27d3t01.flac
922b15466ce0785389ed6927d183d657 *gd80-10-27d3t02.flac
56b4791fa779d1ce0cc898ab2329ddb5 *gd80-10-27d3t03.flac
887400d335baa1a8ce7167f71aa7d092 *gd80-10-27d3t04.flac
92644a9e96c6d85eb652c0dac0115807 *gd80-10-27d3t05.flac
a42fc7a257593f96cce10617df023c05 *gd80-10-27d3t06.flac
9a46cf8e987d19d85f200f285fa4027f *gd80-10-27d3t07.flac
a6b5199faa0e0c84cd114d508eef8fa3 *gd80-10-27d3t08.flac
34901e4996f8282ec1251dacddc56d1d *gd80-10-27d3t09.flac
689fc334457a42ef9d450bcc0b3509bd *gd80-10-27d3t10.flac
470d830905175af6917f59613b41ea08 *gd80-10-27d3t11.flac

Comments
Add Comment
Other Sources (comments)
Recording by Jim Wise:... (2) Recording by Jim Wise:... (1) flac2448: AUD: 2x... (0) flac16: AUD: 2x... (0)
Date User Comment