Browse Collections Artists Sources   Search Dates

Add Show    List Management    Help


Grateful Dead 10/29/80
Radio City Music Hall, New York, NY
Comments Add Comment    Source Collectors    Add to Collection    Add to Want List    History
Source # 101306 Other Sources
Entered by dr.unclear
Checksums ffp , flac-md5
Disc Counts 2 / 3
Media Size
Date Circulated
Date Added
09/12/2009
09/12/2009
Source Summary flac16; Recording Info: (FOB) Sony ECM-280 -> Cassette Master (Sony TC-D5M/Maxell UDXLII-C90/Dolby B); Transfer Info: Cassette Master (Nakamichi DR-1/Dolby B) -> Sound Devices 744T (24bit/96k) -> Adobe Audition v1.5 -> Samplitude Professional v10.21 -> FLAC/16; Taped By Jim Wise; All Transfers and Mastering By Charlie Miller 
  Archive
Source Information - Download Text | Download Zip
Grateful Dead - October 29, 1980
Radio City Music Hall - New York, NY

Recording Info:
(FOB) Sony ECM-280 -> Cassette Master (Sony TC-D5M/Maxell UDXLII-C90/Dolby B)

Transfer Info:
Cassette Master (Nakamichi DR-1/Dolby B) -> Sound Devices 744T (24bit/96k) ->
Adobe Audition v1.5 -> Samplitude Professional v10.21 -> FLAC/16
(3 Discs Audio / 2 Discs FLAC)

All Transfers and Mastering By Charlie Miller
[email protected]
September 11, 2009

Notes:
-- All disc changes are seamless
-- Recorded By Jim Wise (mics laid on shelf under rail @ center lodge)
-- Thanks to Jim Wise for lending me his master cassettes
-- Thanks to Joe B. Jones for his help with the pitch correction

Set 1:
d1t01 - Dire Wolf
d1t02 - On The Road Again
d1t03 - It Must Have Been The Roses
d1t04 - The Race Is On
d1t05 - Bird Song
d1t06 - Heaven Help The Fool
d1t07 - Oh Babe It Ain't No Lie ->
d1t08 - Ripple

Set 2:
d1t09 - Tuning
d1t10 - Feel Like A Stranger ->
d1t11 - Franklin's Tower
d2t01 - Me And My Uncle ->
d2t02 - Big River
d2t03 - Candyman ->
d2t04 - Little Red Rooster
d2t05 - Tennessee Jed
d2t06 - Looks Like Rain ->
d2t07 - Althea ->
d2t08 - The Music Never Stopped

Set 3:
d2t09 - Tuning
d2t10 - China Cat Sunflower ->
d2t11 - I Know You Rider
d3t01 - Estimated Prophet ->
d3t02 - Terrapin Station ->
d3t03 - Drums ->
d3t04 - Space ->
d3t05 - The Wheel ->
d3t06 - Saint Of Circumstance ->
d3t07 - Black Peter ->
d3t08 - Sugar Magnolia

Encore:
d3t09 - U.S. Blues


SHNTOOL OUTPUT:
    length     expanded size   cdr  WAVE problems filename
     5:36.55       59399804    ---   --   -----   gd80-10-29d1t01.wav
     4:25.52       46868348    ---   --   -----   gd80-10-29d1t02.wav
     8:11.24       86668892    ---   --   -----   gd80-10-29d1t03.wav
     4:40.16       49429676    ---   --   -----   gd80-10-29d1t04.wav
     9:35.39      101521772    ---   --   -----   gd80-10-29d1t05.wav
     6:28.54       68570252    ---   --   -----   gd80-10-29d1t06.wav
     7:54.31       83686556    ---   --   -----   gd80-10-29d1t07.wav
     4:44.22       50149388    ---   --   -----   gd80-10-29d1t08.wav
     2:46.36       29367116    ---   --   -----   gd80-10-29d1t09.wav
     7:15.73       76905740    ---   --   -----   gd80-10-29d1t10.wav
    11:35.46      122706236    ---   --   -----   gd80-10-29d1t11.wav
     3:08.26       33224396    ---   --   -----   gd80-10-29d2t01.wav
     6:21.62       67354268    ---   --   -----   gd80-10-29d2t02.wav
     7:21.31       77865356    ---   --   -----   gd80-10-29d2t03.wav
    11:13.68      118877180    ---   --   -----   gd80-10-29d2t04.wav
     9:27.72      100188188    ---   --   -----   gd80-10-29d2t05.wav
     8:09.55       86389004    ---   --   -----   gd80-10-29d2t06.wav
     9:02.68       95768780    ---   --   -----   gd80-10-29d2t07.wav
     8:24.72       89074988    ---   --   -----   gd80-10-29d2t08.wav
     0:49.35        8725964    ---   --   -----   gd80-10-29d2t09.wav
     5:23.33       57054860    ---   --   -----   gd80-10-29d2t10.wav
     6:19.59       66994412    ---   --   -----   gd80-10-29d2t11.wav
    10:30.01      111134396    ---   --   -----   gd80-10-29d3t01.wav
    11:39.36      123388316    ---   --   -----   gd80-10-29d3t02.wav
    11:11.58      118500860    ---   --   -----   gd80-10-29d3t03.wav
     5:52.63       62241020    ---   --   -----   gd80-10-29d3t04.wav
     6:16.14       66359372    ---   --   -----   gd80-10-29d3t05.wav
     6:21.63       67356620    ---   --   -----   gd80-10-29d3t06.wav
     9:24.26       99550796    ---   --   -----   gd80-10-29d3t07.wav
     9:21.16       98998076    ---   --   -----   gd80-10-29d3t08.wav
     5:36.68       59430380    ---   --   -----   gd80-10-29d3t09.wav
   225:13.24     2383751012 B                     (totals for 31 files)
Show Checksums
ffp
gd80-10-29d1t01.flac:4d5e04d4609269afc53fcd44fac4cf78
gd80-10-29d1t02.flac:d9c653458d13612cdb386877eb913c80
gd80-10-29d1t03.flac:a0e954ab0bb29884b6ab84ffd2665499
gd80-10-29d1t04.flac:f8a7308443ebd70f2c0a9c8d1922c925
gd80-10-29d1t05.flac:77ddf17b4d944e27e7fbb0f58d8db6af
gd80-10-29d1t06.flac:6eb66e806726405494bcfb9b2cb1fd73
gd80-10-29d1t07.flac:0b35c3873a2d7b6d2595a9ef9349798f
gd80-10-29d1t08.flac:41d2785af1bc27dc87967a47b4d2699e
gd80-10-29d1t09.flac:ac6fbe44d1bea22d3ce0836bb706f569
gd80-10-29d1t10.flac:547659288a8dbf9df9b7c76b5e7a171d
gd80-10-29d1t11.flac:0bf9e267f25ca1d90732af19e7436ad4
gd80-10-29d2t01.flac:7928bd5715eb4465d62c7ae67641e456
gd80-10-29d2t02.flac:5c188b017745bbd427f2c0bf2d0ab674
gd80-10-29d2t03.flac:3c82ace710279dab26019c43659d5235
gd80-10-29d2t04.flac:ed96facfdf233c1d621dcd30fee8de92
gd80-10-29d2t05.flac:922bce32554adb7182b77e46dfa8bf38
gd80-10-29d2t06.flac:0a80948ac0400abbb994c0fc83adecdd
gd80-10-29d2t07.flac:2a258fd40a0757b8190087eb5a973b88
gd80-10-29d2t08.flac:7c4b9fa9596bbf0febff357bf79fd702
gd80-10-29d2t09.flac:2a58ef4c255c40e514ecb481982c635e
gd80-10-29d2t10.flac:b3e4354832a6e7d73bb5d3f853e9383f
gd80-10-29d2t11.flac:0b8dc515662f7ffab2a502096d4bfe7b
gd80-10-29d3t01.flac:eeca8dda008920edfc4752b4b65b4600
gd80-10-29d3t02.flac:6f403810fdd5f1faf14bfa744a80e022
gd80-10-29d3t03.flac:064f52acaee2aeab28022f710ff8df3f
gd80-10-29d3t04.flac:297295b555f5cd000f98b6580f5be320
gd80-10-29d3t05.flac:dfe5b2be100ede34ffcb32597ed6142f
gd80-10-29d3t06.flac:6d031a644816c77a458485e3a883e45b
gd80-10-29d3t07.flac:6a5e16f3ee9435e792f2d442050f5171
gd80-10-29d3t08.flac:62dbc71d208451b0da2cb3027437c35e
gd80-10-29d3t09.flac:8d0ea8bbd46c43c161c09655eff65aab
flac-md5
57a3554522e1756917d7c4e4ba28da78 *gd80-10-29d1t01.flac
a8ef17f627bb7de39ef96a0fa3b08e6a *gd80-10-29d1t02.flac
2d0f6251122fadedf0bf3b1a30db3049 *gd80-10-29d1t03.flac
8a62c6fcdeb0b51a1baeb9abe312e302 *gd80-10-29d1t04.flac
0d010342c33d65007dfd0b27aae81285 *gd80-10-29d1t05.flac
c95af1d467b8e6d42ac230b78f168bb6 *gd80-10-29d1t06.flac
18f3ca711f176fac561fce203d99c62c *gd80-10-29d1t07.flac
1bc04bbab479cdb8ea93d6f945552ec1 *gd80-10-29d1t08.flac
3b13eea8380176521ce3e2dc2a108745 *gd80-10-29d1t09.flac
8f19a9d6039d708b1a8c47c5e64e2f61 *gd80-10-29d1t10.flac
b584c20644e6dba075dd439103404035 *gd80-10-29d1t11.flac
c8363973fc9511a05613f78fcb97dc5d *gd80-10-29d2t01.flac
e55f7a7f8d5d23d1e5b64b78bbff2068 *gd80-10-29d2t02.flac
4b3c29d9a2b1406eff69182405dbaef3 *gd80-10-29d2t03.flac
377c9a168b88aceb3ce077ab2097fbb8 *gd80-10-29d2t04.flac
967780b945bb27f0041af15e7cf0ab8f *gd80-10-29d2t05.flac
b2e891396abb1f1c8fc28783e4bc2032 *gd80-10-29d2t06.flac
314932cccc9750acadfb876defa9bbaf *gd80-10-29d2t07.flac
c1445f4314b6d366fab5bf96c21388f7 *gd80-10-29d2t08.flac
d91c0816904a335ef66dcee0561c6638 *gd80-10-29d2t09.flac
4aa30557551162a4634eab26c362b67e *gd80-10-29d2t10.flac
fb2e1f9386cf65e7edc273e08e30566c *gd80-10-29d2t11.flac
1989353c2727f11f36a7c98c2f2b42d1 *gd80-10-29d3t01.flac
86585eb1b32e0a88b161a7df5a85a1f6 *gd80-10-29d3t02.flac
f16afd47abb19a6b21adcb67f1ca636e *gd80-10-29d3t03.flac
cb002c308f0a6080d5050fcfeea0a4e9 *gd80-10-29d3t04.flac
bb1de5ff767cd628319bec0e76fc8d0e *gd80-10-29d3t05.flac
2602d3e78ea3e07cccc4bd8e90fa9edc *gd80-10-29d3t06.flac
a43f0653484aa281ee63ef2774433f0f *gd80-10-29d3t07.flac
fbe8609493e4a39f15dd5748f4899d24 *gd80-10-29d3t08.flac
cd43eb9213da6e6a752aa665e9442406 *gd80-10-29d3t09.flac

Comments
Add Comment
Other Sources (comments)
Recording by Jim Wise:... (2) flac16; **Partial... (0) flac16; Seamless... (1) flac16; Loge Dead... (1) flac16; Partial... (0) flac16; AUD: 2x... (0) flac16; Partial Sets... (0) flac24; partial set... (0) flac16; partial set... (0) flac16; SBD DAT->... (0)
Date User Comment