Browse Collections Artists Sources   Search Dates

Add Show    List Management    Help


Allman Brothers Band 06/28/92
Roy Wilkins Auditorium, St. Paul, MN
Comments Add Comment    Source Collectors    Add to Collection    Add to Want List    History
Source # 101312 Other Sources
Entered by
Checksums ffp
Disc Counts 2 / 2
Media Size
Date Circulated
Date Added
09/12/2009
09/12/2009
Source Summary Source: Dsbd> Dat (unknown gens)
Lineage: Dat > Tascom DA-40 > COAX to COAX cable > M-AUDIO Audiophile 2496 > CD Wave > TLH > flac24 > TLH > wav 24/48 > Adobe Audition > Wavelab (with iZotope Ozone 4) > iZotope RX Advanced > wav 16/44.1 > CDWave > TLH > flac16 
Source Information - Download Text | Download Zip
The Allman Brothers Band
Roy Wilkins Auditorium
St. Paul, MN
06/28/1992

Source: Dsbd> Dat (unknown gens)
Lineage: Dat > Tascom DA-40 > COAX to COAX cable > M-AUDIO  Audiophile 2496 > CD Wave > TLH >
               flac24 > TLH > wav 24/48 > Adobe Audition > Wavelab (with iZotope Ozone 4) > iZotope RX Advanced >
               wav 16/44.1 > CDWave > TLH > flac16


Disc 1

01   //Don't Want You No More >
02   It's Not My Cross To Bear >
03   Statesboro Blues
04   Don't Keep Me Wonderin'
05   Blue Sky
06   Nobody Knows
07   Black Hearted Woman//
08   //Seven Turns @
09   Midnight Rider @
10   Southbound @
11   Melissa @
12   tuning/banter
13   Pony Boy @


Disc 2

01   Hoochie Coochie Man
02   Get On With Your Life
03   True Gravity
04   Revival

encore:

05   Whipping Post


Notes:

- d1t01 fades in
- d1t06 small cut near end
- splice before d2t03 starts
- pause after d2t03 crossfaded

---------------------------------------------------------

- Tape provided by and transferred by Vern (heyvernusa)

- Edited by SIRMick

- Brought To You By Live Music Preservation Project

- contact: [email protected]

-----------------------------------------------------------

Shntool ouput:

    length     expanded size    cdr  WAVE problems  fmt   ratio  filename
     2:35.53       27466700 B   ---   --   ---xx   flac  0.6716  abb1992-06-28d1t01.flac
     4:52.71       51675836 B   ---   --   ---xx   flac  0.6425  abb1992-06-28d1t02.flac
     5:29.59       58174412 B   ---   --   ---xx   flac  0.6532  abb1992-06-28d1t03.flac
     4:49.71       51146636 B   ---   --   ---xx   flac  0.6354  abb1992-06-28d1t04.flac
     8:02.72       85194188 B   ---   --   ---xx   flac  0.6654  abb1992-06-28d1t05.flac
    14:52.63      157497020 B   ---   --   ---xx   flac  0.6651  abb1992-06-28d1t06.flac
     4:38.29       49107452 B   ---   --   ---xx   flac  0.6776  abb1992-06-28d1t07.flac
     4:05.14       43250972 B   ---   --   ---xx   flac  0.5771  abb1992-06-28d1t08.flac
     3:36.34       38182412 B   ---   --   ---xx   flac  0.5619  abb1992-06-28d1t09.flac
     5:42.37       60415868 B   ---   --   ---xx   flac  0.5780  abb1992-06-28d1t10.flac
     5:12.60       55177964 B   ---   --   ---xx   flac  0.5738  abb1992-06-28d1t11.flac
     2:01.37       21431468 B   ---   --   ---xx   flac  0.5037  abb1992-06-28d1t12.flac
     6:03.72       64202588 B   ---   --   ---xx   flac  0.5568  abb1992-06-28d1t13.flac
     8:43.22       92308988 B   ---   --   ---xx   flac  0.6066  abb1992-06-28d2t01.flac
     7:46.53       82327100 B   ---   --   ---xx   flac  0.6044  abb1992-06-28d2t02.flac
    23:02.65      243937724 B   ---   --   ---xx   flac  0.6488  abb1992-06-28d2t03.flac
     6:35.06       69692156 B   ---   --   ---xx   flac  0.6826  abb1992-06-28d2t04.flac
    13:11.18      139574780 B   ---   --   ---xx   flac  0.6506  abb1992-06-28d2t05.flac
   131:24.11     1390764264 B                            0.6319  (18 files)

Flac fingerprints:

abb1992-06-28d1t01.flac:115667e08b0f88e822409ab05a1f99f3
abb1992-06-28d1t02.flac:3c5b45385cda40cec19e420c8bdd8920
abb1992-06-28d1t03.flac:715edfacb154d693c712ae245a3168e2
abb1992-06-28d1t04.flac:fc0a0ed4152217ff13336c1ee5bebff0
abb1992-06-28d1t05.flac:389e4416a8f44fbbe773d3a7872f7146
abb1992-06-28d1t06.flac:48e54f8b2b38a420fa7be5cba383f0c0
abb1992-06-28d1t07.flac:28dfd48ab1e0cb5ccdec3df8004b5b6f
abb1992-06-28d1t08.flac:1ffda27103187d13d14e1264bd046c96
abb1992-06-28d1t09.flac:66e96d36941d42d5be2482f969d547a6
abb1992-06-28d1t10.flac:2ae0d31da79328462a141a5ddc513ffe
abb1992-06-28d1t11.flac:cd5400db51034f8e8d8d45f71f4a49b0
abb1992-06-28d1t12.flac:47c83dc55147ca7fa23badc64c4eab97
abb1992-06-28d1t13.flac:20a2eebd2b6386a9b365e3bdf08cf8fb
abb1992-06-28d2t01.flac:b21cf43611e5a915605ba0924c326859
abb1992-06-28d2t02.flac:545c7c77e5b215535e9b59c261a78f03
abb1992-06-28d2t03.flac:9ad0f42b5680dab9febc4ebdc80209b0
abb1992-06-28d2t04.flac:7b93231870a1598a274f47dd35c1e3b3
abb1992-06-28d2t05.flac:f826bc8cd2a090468c82f122dacfaadb

Md5s:

0662cbd24eaeb127cf78f2a64264f231 *abb1992-06-28d1t01.flac
98f59c63aa4933bccd5c1ce0e8763464 *abb1992-06-28d1t02.flac
3fa7083daa0113c3f1607959a027249f *abb1992-06-28d1t03.flac
b5e179f20f3564161cf82a3c165797e4 *abb1992-06-28d1t04.flac
05b334346d76046ff1856d1c9cc71185 *abb1992-06-28d1t05.flac
c2569ce41b5cc5ff0506344f3b8af602 *abb1992-06-28d1t06.flac
be2ee6d781034e645b06acae56ba8547 *abb1992-06-28d1t07.flac
d1d3e61c6127944f32737ccb35bfafea *abb1992-06-28d1t08.flac
105bb16d782d8232bfae09124d92b17b *abb1992-06-28d1t09.flac
c6e85031b926b7c70c2fd245b9726c76 *abb1992-06-28d1t10.flac
b3cd69a4b8388854b9deeb7e4889e3fa *abb1992-06-28d1t11.flac
8afdb7db8d40d2587131b0f653e5da16 *abb1992-06-28d1t12.flac
0523fdcec9b3ab6c32a024ab52ef5236 *abb1992-06-28d1t13.flac
b62eb5891b37c01396c8f90632a0fa69 *abb1992-06-28d2t01.flac
136755045044dba3412ce7cd48d5b2ea *abb1992-06-28d2t02.flac
cc18742f92b18bef8cd7c53eb1f1bbcb *abb1992-06-28d2t03.flac
e04b271a19fed35b264c1de423441158 *abb1992-06-28d2t04.flac
43b48f2aacd2c848da7af99054dc9bbe *abb1992-06-28d2t05.flac

St5s:

115667e08b0f88e822409ab05a1f99f3  [shntool]  abb1992-06-28d1t01.flac
3c5b45385cda40cec19e420c8bdd8920  [shntool]  abb1992-06-28d1t02.flac
715edfacb154d693c712ae245a3168e2  [shntool]  abb1992-06-28d1t03.flac
fc0a0ed4152217ff13336c1ee5bebff0  [shntool]  abb1992-06-28d1t04.flac
389e4416a8f44fbbe773d3a7872f7146  [shntool]  abb1992-06-28d1t05.flac
48e54f8b2b38a420fa7be5cba383f0c0  [shntool]  abb1992-06-28d1t06.flac
28dfd48ab1e0cb5ccdec3df8004b5b6f  [shntool]  abb1992-06-28d1t07.flac
1ffda27103187d13d14e1264bd046c96  [shntool]  abb1992-06-28d1t08.flac
66e96d36941d42d5be2482f969d547a6  [shntool]  abb1992-06-28d1t09.flac
2ae0d31da79328462a141a5ddc513ffe  [shntool]  abb1992-06-28d1t10.flac
cd5400db51034f8e8d8d45f71f4a49b0  [shntool]  abb1992-06-28d1t11.flac
47c83dc55147ca7fa23badc64c4eab97  [shntool]  abb1992-06-28d1t12.flac
20a2eebd2b6386a9b365e3bdf08cf8fb  [shntool]  abb1992-06-28d1t13.flac
b21cf43611e5a915605ba0924c326859  [shntool]  abb1992-06-28d2t01.flac
545c7c77e5b215535e9b59c261a78f03  [shntool]  abb1992-06-28d2t02.flac
9ad0f42b5680dab9febc4ebdc80209b0  [shntool]  abb1992-06-28d2t03.flac
7b93231870a1598a274f47dd35c1e3b3  [shntool]  abb1992-06-28d2t04.flac
f826bc8cd2a090468c82f122dacfaadb  [shntool]  abb1992-06-28d2t05.flac
Show Checksums
ffp
abb1992-06-28d1t01.flac:115667e08b0f88e822409ab05a1f99f3
abb1992-06-28d1t02.flac:3c5b45385cda40cec19e420c8bdd8920
abb1992-06-28d1t03.flac:715edfacb154d693c712ae245a3168e2
abb1992-06-28d1t04.flac:fc0a0ed4152217ff13336c1ee5bebff0
abb1992-06-28d1t05.flac:389e4416a8f44fbbe773d3a7872f7146
abb1992-06-28d1t06.flac:48e54f8b2b38a420fa7be5cba383f0c0
abb1992-06-28d1t07.flac:28dfd48ab1e0cb5ccdec3df8004b5b6f
abb1992-06-28d1t08.flac:1ffda27103187d13d14e1264bd046c96
abb1992-06-28d1t09.flac:66e96d36941d42d5be2482f969d547a6
abb1992-06-28d1t10.flac:2ae0d31da79328462a141a5ddc513ffe
abb1992-06-28d1t11.flac:cd5400db51034f8e8d8d45f71f4a49b0
abb1992-06-28d1t12.flac:47c83dc55147ca7fa23badc64c4eab97
abb1992-06-28d1t13.flac:20a2eebd2b6386a9b365e3bdf08cf8fb
abb1992-06-28d2t01.flac:b21cf43611e5a915605ba0924c326859
abb1992-06-28d2t02.flac:545c7c77e5b215535e9b59c261a78f03
abb1992-06-28d2t03.flac:9ad0f42b5680dab9febc4ebdc80209b0
abb1992-06-28d2t04.flac:7b93231870a1598a274f47dd35c1e3b3
abb1992-06-28d2t05.flac:f826bc8cd2a090468c82f122dacfaadb

Comments
Add Comment
Other Sources (comments)
flac16 44.1khz ... (0)
Date User Comment