Browse Collections Artists Sources   Search Dates

Add Show    List Management    Help


Disco Biscuits 02/26/09
The New Higher Ground, South Burlington, VT
Comments Add Comment    Source Collectors    Add to Collection    Add to Want List    History
Source # 101403 Other Sources
Entered by SailorSaint
Checksums ffp
Disc Counts 0 / 0
Media Size
Date Circulated
Date Added

09/16/2009
Source Summary {16 bit} Schoeps mk41 > kc5 > cmc6 > Lunatec V3 (analog out)> Sonic AD2K+ > MT II @ 24 bit/ 48 kHz CF > Sound Studio 3 > (fades, normalize peak, tracking) > xAct (sector alignment, encode, tag, fingerprint) 
  Archive
Source Information - Download Text | Download Zip
The Disco Biscuits
February 26, 2009
The Higher Ground
South Burlington, VT

Source: {16 bit} Schoeps mk41 > kc5 > cmc6 > Lunatec V3 (analog out)> Sonic AD2K+ > MT II @ 24 bit/ 48 kHz
Lineage: CF > Sound Studio 3 > (fades, normalize peak, tracking) > xAct (sector alignment, encode, tag, fingerprint)
Location: FOH/ DINa
Recorded by Jesse Hurlburt

Set I:
01 Intro
02 Tamarin Alley
03 Mindless Dribble (1) >
05 Lunar Pursuit >
06 Shem-Rah Boo (1) >
07 Voices Insane

Set II:

08 Crowd/ Tuning
09 M80
10 Hope >  
11 Crickets (2) >
12 Story Of The World (3) >
13 Spacebirdmatingcall (1) >
14 I-Man
15 E: Onamae Wa

1 unfinished
2 middle section only
3 inverted

    length     expanded size    cdr  WAVE problems  fmt   ratio  filename
     1:37.26       17171996 B   ---   --   ---xx  db2009-02-26.mk41.t01.flac
     6:07.66       64894076 B   ---   --   ---xx  db2009-02-26.mk41.t02.flac
     9:47.61      103690316 B   ---   --   ---xx  db2009-02-26.mk41.t03.flac
    22:53.64      242347772 B   ---   --   ---xx  db2009-02-26.mk41.t04.flac
    11:26.23      121064540 B   ---   --   ---xx  db2009-02-26.mk41.t05.flac
    18:47.01      198805196 B   ---   --   ---xx  db2009-02-26.mk41.t06.flac
     1:11.05       12536204 B   ---   --   ---xx  db2009-02-26.mk41.t07.flac
     6:04.58       64346060 B   ---   --   ---xx  db2009-02-26.mk41.t08.flac
     9:29.17      100411628 B   ---   --   ---xx  db2009-02-26.mk41.t09.flac
    11:26.68      121170380 B   ---   --   ---xx  db2009-02-26.mk41.t10.flac
    17:04.38      180723020 B   ---   --   ---xx  db2009-02-26.mk41.t11.flac
    21:20.55      225921404 B   ---   --   ---xx  db2009-02-26.mk41.t12.flac
    21:28.65      227356124 B   ---   --   ---xx  db2009-02-26.mk41.t13.flac
     4:18.48       45624140 B   ---   --   ---xx  db2009-02-26.mk41.t14.flac
     8:53.61       94164716 B   ---   --   ---xx  db2009-02-26.mk41.t15.flac
   171:58.56     1820227572 B                            0.5392  (15 files)
Show Checksums
ffp
db2009-02-26.mk41.t01.flac:4a6425da4371a8c8d6f59678f28f739d
db2009-02-26.mk41.t02.flac:9db4ffcdb1b364cd38d576f6ed0a33ec
db2009-02-26.mk41.t03.flac:b891e7c11c1d7c1f91fb42f87c7fd27b
db2009-02-26.mk41.t04.flac:7f986ceea1c18ba3eea5423849ec23ca
db2009-02-26.mk41.t05.flac:b45790168567ec0e4d645ba705290667
db2009-02-26.mk41.t06.flac:7495ef1bfa421835703f159b6256284c
db2009-02-26.mk41.t07.flac:0973f56830fbdf92c97b1cecebfee40e
db2009-02-26.mk41.t08.flac:8afcb72dcee3e1ca02a586a94816dd10
db2009-02-26.mk41.t09.flac:c58d38ada5bcc3091c3f298a5106a6af
db2009-02-26.mk41.t10.flac:c2515791da2a13c8391638b31c501036
db2009-02-26.mk41.t11.flac:830b98c02d455065bbfa23ace3487844
db2009-02-26.mk41.t12.flac:427da28835fb2b8c6983abda4e253ef1
db2009-02-26.mk41.t13.flac:c85a3f87666f3a8ff37167a1e8122d00
db2009-02-26.mk41.t14.flac:08b0678d4a6b9ea9eb284686e0a2004b
db2009-02-26.mk41.t15.flac:045665c27a3ab656d439050caad2ef53

Comments
Add Comment
Date User Comment