Browse Collections Artists Sources   Search Dates

Add Show    List Management    Help


Grateful Dead 10/30/80
Radio City Music Hall, New York, NY
Comments Add Comment    Source Collectors    Add to Collection    Add to Want List    History
Source # 101427 Other Sources
Entered by Matt Vernon
Checksums ffp , flac-md5
Disc Counts 2 / 3
Media Size
Date Circulated
Date Added
09/17/2009
09/17/2009
Source Summary flac16; Recording Info: (FOB) Sony ECM-280 -> Cassette Master (Sony TC-D5M/Maxell UDXLII-C90/Dolby B) Transfer Info: Cassette Master (Nakamichi DR-1/Dolby B) -> Sound Devices 744T (24bit/96k) -> Adobe Audition v1.5 -> Samplitude Professional v10.21 -> FLAC/16; Recorded by Jim Wise; All Transfers and Mastering By Charlie Miller 
  Archive
Source Information - Download Text | Download Zip
Grateful Dead - October 30, 1980
Radio City Music Hall - New York, NY

Recording Info:
(FOB) Sony ECM-280 -> Cassette Master (Sony TC-D5M/Maxell UDXLII-C90/Dolby B)

Transfer Info:
Cassette Master (Nakamichi DR-1/Dolby B) -> Sound Devices 744T (24bit/96k) ->
Adobe Audition v1.5 -> Samplitude Professional v10.21 -> FLAC/16
(3 Discs Audio / 2 Discs FLAC)

All Transfers and Mastering By Charlie Miller
[email protected]
September 16, 2009

Notes:
-- All disc changes are seamless
-- Drums with Billy Cobham
-- Recorded By Jim Wise (mics laid on shelf under rail @ center lodge)
-- Thanks to Jim Wise for lending me his master cassettes
-- Thanks to Joe B. Jones for his help with the pitch correction

Set 1:
d1t01 - Tuning
d1t02 - Deep Elem Blues
d1t03 - Dark Hollow
d1t04 - I've Been All Around This World
d1t05 - On The Road Again
d1t06 - To Lay Me Down
d1t07 - Heaven Help The Fool ->
d1t08 - Ripple

Set 2:
d1t09 - Tuning
d1t10 - Alabama Getaway ->
d1t11 - Promised Land
d1t12 - Peggy-O
d1t13 - Mama Tried ->
d1t14 - Mexicali Blues
d2t01 - Loser
d2t02 - New Minglewood Blues
d2t03 - Althea ->
d2t04 - Lost Sailor ->
d2t05 - Saint Of Circumstance

Set 3:
d2t06 - Tuning
d2t07 - Shakedown Street ->
d2t08 - Samson And Delilah
d3t01 - He's Gone ->
d3t02 - Truckin' ->
d3t03 - Drums ->
d3t04 - Space ->
d3t05 - The Other One ->
d3t06 - Wharf Rat ->
d3t07 - Good Lovin'

Encore:
d3t08 - Johnny B. Goode


SHNTOOL OUTPUT:
    length     expanded size   cdr  WAVE problems filename
     1:08.63       12143420    ---   --   -----   gd80-10-30d1t01.wav
     6:36.37       69941468    ---   --   -----   gd80-10-30d1t02.wav
     5:31.32       58463708    ---   --   -----   gd80-10-30d1t03.wav
     7:00.49       74203292    ---   --   -----   gd80-10-30d1t04.wav
     5:17.44       56022332    ---   --   -----   gd80-10-30d1t05.wav
    10:22.37      109807868    ---   --   -----   gd80-10-30d1t06.wav
     8:10.11       86461916    ---   --   -----   gd80-10-30d1t07.wav
     4:44.64       50248172    ---   --   -----   gd80-10-30d1t08.wav
     1:43.44       18272732    ---   --   -----   gd80-10-30d1t09.wav
     4:43.05       49933004    ---   --   -----   gd80-10-30d1t10.wav
     4:40.72       49561388    ---   --   -----   gd80-10-30d1t11.wav
     8:08.19       86127932    ---   --   -----   gd80-10-30d1t12.wav
     2:34.74       27339692    ---   --   -----   gd80-10-30d1t13.wav
     5:01.24       53152892    ---   --   -----   gd80-10-30d1t14.wav
     8:21.33       88454060    ---   --   -----   gd80-10-30d2t01.wav
     7:51.58       83220860    ---   --   -----   gd80-10-30d2t02.wav
     8:08.13       86113820    ---   --   -----   gd80-10-30d2t03.wav
     6:37.69       70193132    ---   --   -----   gd80-10-30d2t04.wav
     6:44.10       71289164    ---   --   -----   gd80-10-30d2t05.wav
     1:34.25       16640444    ---   --   -----   gd80-10-30d2t06.wav
    12:54.14      136566572    ---   --   -----   gd80-10-30d2t07.wav
     7:13.51       76501196    ---   --   -----   gd80-10-30d2t08.wav
    14:10.62      150085868    ---   --   -----   gd80-10-30d3t01.wav
     9:39.48      102248540    ---   --   -----   gd80-10-30d3t02.wav
    10:46.65      114107324    ---   --   -----   gd80-10-30d3t03.wav
     2:39.19       28092332    ---   --   -----   gd80-10-30d3t04.wav
     6:14.03       65980700    ---   --   -----   gd80-10-30d3t05.wav
     9:31.27      100787948    ---   --   -----   gd80-10-30d3t06.wav
     7:09.59       75814412    ---   --   -----   gd80-10-30d3t07.wav
     4:24.70       46734284    ---   --   -----   gd80-10-30d3t08.wav
   199:47.01     2114510472 B                     (totals for 30 files)
Show Checksums
ffp
gd80-10-30d1t01.flac:1e7cd7eb1afdb55ea01008694311a13e
gd80-10-30d1t02.flac:11d92896e02fe63f50226b691fa88f28
gd80-10-30d1t03.flac:46b4424fd002a855aa3f5b5c0391ffba
gd80-10-30d1t04.flac:0fca9fbae1b1474906e6b4a5e9cbad3b
gd80-10-30d1t05.flac:2a8f4464cabf55e06b15aee9af2ffe07
gd80-10-30d1t06.flac:7518f7ea7f962e591aba160189e983c3
gd80-10-30d1t07.flac:36beb9bed1377c7a5d2ced9437da29bf
gd80-10-30d1t08.flac:6fa5c089833d95a54d5aaebe622cf0a9
gd80-10-30d1t09.flac:612804ccc704e969a71bdee42f7e27c3
gd80-10-30d1t10.flac:af6401120751a42d0d0ba2bb4351fc34
gd80-10-30d1t11.flac:6d1539813135fe563b61b1b8ca46d32a
gd80-10-30d1t12.flac:d9be6d6fead7f8287d59cea2391fe0b1
gd80-10-30d1t13.flac:90ab97edb8c2aa3a14ddbc67f73ac921
gd80-10-30d1t14.flac:d6284e0c7bff18071cd9750a79823270
gd80-10-30d2t01.flac:9060f73726f3c4cc7c6aa7abff7c397f
gd80-10-30d2t02.flac:68387036ef355b89a6e1919c051c4b64
gd80-10-30d2t03.flac:a04fcc11c673238ade46202abfc89a17
gd80-10-30d2t04.flac:5b7a004e6a5e02ae0ba4f6ca732be7dc
gd80-10-30d2t05.flac:b04a6a016c36f250a994c07b6ab191c4
gd80-10-30d2t06.flac:ab16a931e44a5f77808ea0f0c56e43bf
gd80-10-30d2t07.flac:9c5e57e29eb1e7dc82db7041c5a00d9e
gd80-10-30d2t08.flac:261a00094c6fb5d87ffa6efc3f27db7c
gd80-10-30d3t01.flac:07810cdd5eac3ecd0557a12dc69b6366
gd80-10-30d3t02.flac:50b9d15cdc5bd32822d733e8be2c8acf
gd80-10-30d3t03.flac:9ed8b06007583172db02d6640a59530c
gd80-10-30d3t04.flac:4bf643a6b9dfa9684fcee6f122cf6777
gd80-10-30d3t05.flac:e441c7c40d49adb1d6a7a310f722b892
gd80-10-30d3t06.flac:c0a23afa9b871c91cbc8f2069fc483a2
gd80-10-30d3t07.flac:85851950236a3a1960d748e2c6cd8c68
gd80-10-30d3t08.flac:3debdfc7924219e2de32de1539bc4adf
flac-md5
0adb5d585ff65208589f28919291fa5c *gd80-10-30d1t01.flac
97c78456ccdb88fa4277db3b3683a7e1 *gd80-10-30d1t02.flac
561d66f1a4c8b57650709f25520313e4 *gd80-10-30d1t03.flac
da188ec2e5c6a5cda5fc7e69517937d5 *gd80-10-30d1t04.flac
2e7160420de58673337d0eb853911da0 *gd80-10-30d1t05.flac
2844b1a40e160638d9b57965a76210d7 *gd80-10-30d1t06.flac
6b1761640ea5f1794d61ebc899271af3 *gd80-10-30d1t07.flac
38671ba526c55a909bc813177e87cde6 *gd80-10-30d1t08.flac
fae96f24a13790cc427da34512a10a78 *gd80-10-30d1t09.flac
3d161bbdbdf4e01e15e88f629d32d7ac *gd80-10-30d1t10.flac
1a5a51af3f7a35fc52611224ac0b42bd *gd80-10-30d1t11.flac
aed1aba8b4464c24f07a7916344f0bac *gd80-10-30d1t12.flac
4c5c0bd1ff5d428a7341ea4578bb0adc *gd80-10-30d1t13.flac
eca72b18d3739093b84bb4b1b3bd42ec *gd80-10-30d1t14.flac
915acd86ac1bd501a26c37c332a2e254 *gd80-10-30d2t01.flac
cf6fa700327609188d187bed9a4f0c34 *gd80-10-30d2t02.flac
5f3a25fd73d73a648d091c0a4b9b020c *gd80-10-30d2t03.flac
d179b94747908f93252f5a35179299ba *gd80-10-30d2t04.flac
f39f2ccd6b6b489a41372c3f3ba21480 *gd80-10-30d2t05.flac
53eba7873ae391a3272262c154fb45df *gd80-10-30d2t06.flac
a66e5810c1d249cf94dd3395235ee373 *gd80-10-30d2t07.flac
f7d0f936e44fa5c450b08fde3ceb6e72 *gd80-10-30d2t08.flac
a393b1b5815d836b7f8f5c9185c597af *gd80-10-30d3t01.flac
e9edc0eee9204588dc79794cf4a64715 *gd80-10-30d3t02.flac
9335a1ce6a63b5b814a83ce9ef821a30 *gd80-10-30d3t03.flac
191f48e95ff0eb3c53d5495269b43482 *gd80-10-30d3t04.flac
0ce1f5938aa4704b956e8b2411b0b043 *gd80-10-30d3t05.flac
6a053f4bd17b22e347ab4f9a642faeb0 *gd80-10-30d3t06.flac
3d061ae085db376cc978e5e436a5a0ac *gd80-10-30d3t07.flac
88d73ec3c6cd36ee2423e2b693076115 *gd80-10-30d3t08.flac

Comments
Add Comment
Other Sources (comments)
Recording by Jim Wise.... (2) flac16; Loge Dead... (0) flac16; Source: 10Ó... (0)
Date User Comment