Browse Collections Artists Sources   Search Dates

Add Show    List Management    Help


Grateful Dead 10/31/80
Radio City Music Hall, New York, NY
Comments Add Comment    Source Collectors    Add to Collection    Add to Want List    History
Source # 101428 Other Sources
Entered by Matt Vernon
Checksums ffp , flac-md5
Disc Counts 2 / 3
Media Size
Date Circulated
Date Added
09/17/2009
09/17/2009
Source Summary flac16; Recording Info: (FOB) Sony ECM-280 -> Cassette Master (Sony TC-D5M/Maxell UDXLII-C90/Dolby B) Transfer Info: Cassette Master (Nakamichi DR-1/Dolby B) -> Sound Devices 744T (24bit/96k) -> Adobe Audition v1.5 -> Samplitude Professional v10.21 -> FLAC/16; Recorded by Jim Wise; All Transfers and Mastering By Charlie Miller 
  Archive
Source Information - Download Text | Download Zip
Grateful Dead - October 31, 1980
Radio City Music Hall - New York, NY

Recording Info:
(FOB) Sony ECM-280 -> Cassette Master (Sony TC-D5M/Maxell UDXLII-C90/Dolby B)

Transfer Info:
Cassette Master (Nakamichi DR-1/Dolby B) -> Sound Devices 744T (24bit/96k) ->
Adobe Audition v1.5 -> Samplitude Professional v10.21 -> FLAC/16
(3 Discs Audio / 2 Discs FLAC)

All Transfers and Mastering By Charlie Miller
[email protected]
September 16, 2009

Patch info:
Nakamichi 700 -> Master Cassette (shnid=94270) supplies:
Little Red Rooster (0:00 - 0:10)

Notes:
-- All disc changes are seamless
-- Recorded By Jim Wise (mics laid on shelf under rail @ center lodge)
-- Thanks to Jim Wise for lending me his master cassettes
-- Thanks to Joe B. Jones for his help with the pitch correction

Set 1:
d1t01 - Tuning
d1t02 - Heaven Help The Fool
d1t03 - Sage And Spirit
d1t04 - Little Sadie
d1t05 - Monkey And The Engineer
d1t06 - It Must Have Been The Roses
d1t07 - Cassidy
d1t08 - Bird Song ->
d1t09 - Ripple

Set 2:
d1t10 - Tuning
d1t11 - Jack Straw
d1t12 - Cold Rain And Snow
d1t13 - Me And My Uncle ->
d1t14 - Mexicali Blues
d2t01 - Ramble On Rose ->
d2t02 - Little Red Rooster
d2t03 - Brown Eyed Women ->
d2t04 - Looks Like Rain ->
d2t05 - Deal

Set 3:
d2t06 - Tuning
d2t07 - Don't Ease Me In ->
d2t08 - Lost Sailor ->
d2t09 - Saint Of Circumstance ->
d2t10 - Franklin's Tower ->
d2t11 - Drums ->
d3t01 - Space ->
d3t02 - Fire On The Mountain ->
d3t03 - Not Fade Away ->
d3t04 - Stella Blue ->
d3t05 - Goin' Down The Road Feeling Bad ->
d3t06 - Good Lovin'

Encore:
d3t07 - Uncle John's Band


SHNTOOL OUTPUT:
    length     expanded size   cdr  WAVE problems filename
     3:07.12       33015068    ---   --   -----   gd80-10-31d1t01.wav
     7:59.16       84533276    ---   --   -----   gd80-10-31d1t02.wav
     2:52.35       30423164    ---   --   -----   gd80-10-31d1t03.wav
     3:22.04       35642252    ---   --   -----   gd80-10-31d1t04.wav
     3:19.45       35209484    ---   --   -----   gd80-10-31d1t05.wav
     7:23.02       78149948    ---   --   -----   gd80-10-31d1t06.wav
     5:48.31       61460156    ---   --   -----   gd80-10-31d1t07.wav
     9:27.54      100145852    ---   --   -----   gd80-10-31d1t08.wav
     4:23.52       46515548    ---   --   -----   gd80-10-31d1t09.wav
     0:54.41        9622076    ---   --   -----   gd80-10-31d1t10.wav
     6:11.57       65578508    ---   --   -----   gd80-10-31d1t11.wav
     6:39.02       70388348    ---   --   -----   gd80-10-31d1t12.wav
     2:59.37       31662668    ---   --   -----   gd80-10-31d1t13.wav
     4:22.36       46301516    ---   --   -----   gd80-10-31d1t14.wav
     7:50.27       82971548    ---   --   -----   gd80-10-31d2t01.wav
    10:46.22      114006188    ---   --   -----   gd80-10-31d2t02.wav
     5:15.21       55615436    ---   --   -----   gd80-10-31d2t03.wav
     6:52.53       72801500    ---   --   -----   gd80-10-31d2t04.wav
     6:28.35       68525564    ---   --   -----   gd80-10-31d2t05.wav
     0:19.60        3492764    ---   --   -----   gd80-10-31d2t06.wav
     3:36.57       38236508    ---   --   -----   gd80-10-31d2t07.wav
     6:08.06       64929356    ---   --   -----   gd80-10-31d2t08.wav
     6:33.17       69365228    ---   --   -----   gd80-10-31d2t09.wav
     8:54.16       94235276    ---   --   -----   gd80-10-31d2t10.wav
    12:23.57      131199308    ---   --   -----   gd80-10-31d2t11.wav
     4:45.43       50375180    ---   --   -----   gd80-10-31d3t01.wav
     9:47.54      103673852    ---   --   -----   gd80-10-31d3t02.wav
     6:47.25       71853644    ---   --   -----   gd80-10-31d3t03.wav
     9:28.15      100230524    ---   --   -----   gd80-10-31d3t04.wav
     6:16.62       66472268    ---   --   -----   gd80-10-31d3t05.wav
     7:34.40       80179724    ---   --   -----   gd80-10-31d3t06.wav
     8:29.18       89829980    ---   --   -----   gd80-10-31d3t07.wav
   197:09.02     2086641712 B                     (totals for 32 files)
Show Checksums
ffp
gd80-10-31d1t01.flac:4b6d32f0d84869b7ac56895c44a84e35
gd80-10-31d1t02.flac:df7dad29f949f1512c2d644e4c42e654
gd80-10-31d1t03.flac:5addea3fcc1c4e2928a2056851848383
gd80-10-31d1t04.flac:6c74dfa045d05e172e76057103891e37
gd80-10-31d1t05.flac:25d6e9b195cc24db287f73b2c29cea47
gd80-10-31d1t06.flac:8f919f85dd20175cbdf7e1e394d4e078
gd80-10-31d1t07.flac:310f11d93e3d9110dd7a8644d47c6186
gd80-10-31d1t08.flac:a62d60aece159986fbf4f20a43f4214d
gd80-10-31d1t09.flac:d14d8d7d737f4b28da96c8560ee76efc
gd80-10-31d1t10.flac:787d8ca1c7718983fc42e4a3db795f35
gd80-10-31d1t11.flac:2e86e440d9eb149366f59c0809cdd67c
gd80-10-31d1t12.flac:f38caf4f7c09b3a6169757aa871bce1d
gd80-10-31d1t13.flac:8757061c83894d3d8c320f081c672550
gd80-10-31d1t14.flac:c30b81a11581ee751ca2c92e16519da8
gd80-10-31d2t01.flac:70f3d2c9b4dd5183fb41e25fb526ca8d
gd80-10-31d2t02.flac:12e0a745272f4792b9e61b37498f4a0d
gd80-10-31d2t03.flac:bffe540ff2eae8f9563f4b18a8edc582
gd80-10-31d2t04.flac:a6ed3c9bb3b47c46db837ffd61767905
gd80-10-31d2t05.flac:caee1db6e39605deacaf689babcb4077
gd80-10-31d2t06.flac:e28d7958f8d976128eb89d23c3b1ee52
gd80-10-31d2t07.flac:fce098099d5c6dc25904057834445942
gd80-10-31d2t08.flac:3f6135959bcb7e8d97fffb378eb7f644
gd80-10-31d2t09.flac:4f4cfcfa97350232e1efe38390e3bacc
gd80-10-31d2t10.flac:cc8c274703c2c33d91f11543996ce0cd
gd80-10-31d2t11.flac:2e0a66affecd988fdd9c826fdd777cc9
gd80-10-31d3t01.flac:ab69e11660875d4947ef588ccc1a768e
gd80-10-31d3t02.flac:93f4a9f5f6b0304def361fe5d23d7b47
gd80-10-31d3t03.flac:a059a8639a84bfd95d2dff282923b84c
gd80-10-31d3t04.flac:492b6023da3b3a08c1584f4cb909acdc
gd80-10-31d3t05.flac:a28d5995eeb4c753d6b142681759e95c
gd80-10-31d3t06.flac:8f5baada014afa92328e4bf7aa49da72
gd80-10-31d3t07.flac:2b9259caa4f1589e2b0e3e7c0e50e219
flac-md5
d32e0bf051b21793a78f83fc591f5d46 *gd80-10-31d1t01.flac
6c39fdfd7d7fd7655b60e74a040b605d *gd80-10-31d1t02.flac
fe51d28d31ce2dffba824cec7de3ae14 *gd80-10-31d1t03.flac
1db6713ef32a51afb150d2969f29c8cd *gd80-10-31d1t04.flac
4299cf99b00c630de313ca0b7732a05a *gd80-10-31d1t05.flac
4728e77da0277b0ae9a3e28236c8c0e7 *gd80-10-31d1t06.flac
f3738e73f56256249820e1dd0f143ce4 *gd80-10-31d1t07.flac
5a79fbbe799e6d9fc3ab0b31e45c34ec *gd80-10-31d1t08.flac
409a63036f7fdebe693795b30254d870 *gd80-10-31d1t09.flac
c134c2bf9980735dde088e58df6ddd56 *gd80-10-31d1t10.flac
349a24c85ee3e3c8ef6fb95fec4b701b *gd80-10-31d1t11.flac
c74bfb8e0e41bfd45e992a7b6d2b1920 *gd80-10-31d1t12.flac
a7172324f40e7f91f59c663815d995c8 *gd80-10-31d1t13.flac
3c31307c7b8f5163404d7d6d7d16cb43 *gd80-10-31d1t14.flac
4b2bea1c37bae5275e482aa76ca70ad9 *gd80-10-31d2t01.flac
edcae2e7aa3c15db71bc11cfa8181993 *gd80-10-31d2t02.flac
f9daec0196816940cf27fef3e19c97c3 *gd80-10-31d2t03.flac
8181e1b308e66a57cf07c2389226b90c *gd80-10-31d2t04.flac
9fe34bdb5615b109f7114fb1ed71f77c *gd80-10-31d2t05.flac
d8be225010d366124e6d61862db24518 *gd80-10-31d2t06.flac
62d82f3861e76111b03147ec85017e1a *gd80-10-31d2t07.flac
3b1ac7360c7778975c52326f57b96046 *gd80-10-31d2t08.flac
0264fe93fb61d36a453b4589776c0a9b *gd80-10-31d2t09.flac
01e50ca4e195105116958acf531aaee4 *gd80-10-31d2t10.flac
dd8154347b11268ead8bae0f4e872f69 *gd80-10-31d2t11.flac
0eddb6c9b7e4849c4c0089e674f8e4fa *gd80-10-31d3t01.flac
58b8c4ffdc00945438ea6dff4c0d1540 *gd80-10-31d3t02.flac
f1c1ee4aa95d70cf867ea608ad69ea7c *gd80-10-31d3t03.flac
dbc5d2644f1b880581c6c69d327285f9 *gd80-10-31d3t04.flac
0cb126a93e543b0ed35403e5634e8847 *gd80-10-31d3t05.flac
bee3a65d9a5d9cf27657045742504b12 *gd80-10-31d3t06.flac
709558b1f962eda81eebac63618802d6 *gd80-10-31d3t07.flac

Comments
Add Comment
Other Sources (comments)
Recording by Jim Wise:... (2) Source: Acoustic:... (4) flac16; Acoustic:... (1) flac16; Recording... (0) flac16; Loge Dead... (0) flac16; 3 Source... (0) flac24; Partial... (0) flac16/48kHz;... (0) flac24; Cassette... (0) flac24; Updated... (3) flac16; Updated... (3) flac16; Source:... (0) flac24; Source:... (0) flac16; Source:... (0) flac16; Source Info:... (0)
Date User Comment