Browse Collections Artists Sources   Search Dates

Add Show    List Management    Help


Grateful Dead 11/04/79
Providence Civic Center, Providence, RI
Comments Add Comment    Source Collectors    Add to Collection    Add to Want List    History
Source # 101485 Other Sources
Entered by Gary Field
Checksums flac-md5 , ffp
Disc Counts 0 / 0
Media Size
Date Circulated
Date Added
09/20/2009
09/20/2009
Source Summary flac24; AUD: AKG D200's > Technics RS-646DS (lead deck) > Sony TC-153SD (Tim's deck) > Maxell XL-II 90's. Mics on stand, set up behind the soundboard. Taped by Tim Friend & Joe Morrone. Transfer: MAC > Nakamichi DR-2 > Edirol FA-66 > Wavelab > CD-Wave > TLH > FLAC 2496. Transfer by Andrew F. 09/2009 
  Archive
Source Information - Download Text | Download Zip
GRATEFUL DEAD
Civic Center
Providence RI
11-04-1979

24bit/96kHz File-set

s1t01 crowd & tuning
s1t02 Minglewood Blues
s1t03 They Love Eachother
s1t04 Me & My Uncle >
s1t05 Big River
s1t06 Althea
s1t07 Easy to Love You
s1t08 Brown Eyed Women
s1t09 Lost Sailor >
s1t10 Saint of Circumstance >
s1t11 Deal

s2t01 crowd & tuning
s2t02 Alabama Getaway >
s2t03 Greatest Story Ever Told
s2t04 Ship of Fools
s2t05 Estimated Prophet >
s2t06 He's Gone >
s2t07 Jam >
s2t08 Drums >
s2t09 Space >
s2t10 The Other One >
s2t11 Wharf Rat >
s2t12 Around & Around
s2t13 Encore: U.S. Blues

AUD: AKG D200's > Technics RS-646DS (lead deck) > Sony
TC-153SD (Tim's deck) > Maxell XL-II 90's. Mics on stand,
set up behind the soundboard.  Taped by Tim Friend & Joe Morrone.

Transfer: MAC > Nakamichi DR-2 > Edirol FA-66 > Wavelab >
CD-Wave > TLH > FLAC 2496. Transfer by Andrew F. 09/2009

Notes: There was massive ear-splitting P.A. feedback in
Minglewood, at 4:37 > 5:08. A narrow filter was run in
Wavelab around 2.75kHz to dampen it, and volume adjusted.
An alternate AUD cassette (unknown lineage) covers tape
flips: He's Gone 9:32 > 10:11, Around & Around 5:13 > 5:43.

    length     expanded size    cdr  WAVE problems  fmt   ratio  filename
     0:43.413      25006124 B   cxx   --   ---xx   flac  0.6218  gd1979-11-04s1t01.flac
     8:00.027     276495404 B   cxx   --   ---xx   flac  0.6437  gd1979-11-04s1t02.flac
     8:50.160     305372204 B   cxx   --   ---xx   flac  0.6278  gd1979-11-04s1t03.flac
     3:07.720     108126764 B   cxx   --   ---xx   flac  0.6389  gd1979-11-04s1t04.flac
     6:37.067     228710444 B   cxx   --   ---xx   flac  0.6378  gd1979-11-04s1t05.flac
     9:37.013     332359724 B   cxx   --   ---xx   flac  0.6319  gd1979-11-04s1t06.flac
     4:15.295     147049916 B   cxx   --   ---xx   flac  0.6391  gd1979-11-04s1t07.flac
     6:58.173     240867884 B   cxx   --   ---xx   flac  0.6404  gd1979-11-04s1t08.flac
     6:27.147     222996524 B   cxx   --   ---xx   flac  0.6344  gd1979-11-04s1t09.flac
     5:32.960     191785004 B   cxx   --   ---xx   flac  0.6508  gd1979-11-04s1t10.flac
     5:57.931     206168126 B   cxx   --   ---xx   flac  0.6510  gd1979-11-04s1t11.flac
     1:45.853      60971564 B   cxx   --   ---xx   flac  0.6147  gd1979-11-04s2t01.flac
     5:26.293     187945004 B   cxx   --   ---xx   flac  0.6460  gd1979-11-04s2t02.flac
     5:43.345     197766776 B   cxx   --   ---xx   flac  0.6434  gd1979-11-04s2t03.flac
    10:01.420     346417898 B   cxx   --   ---xx   flac  0.6273  gd1979-11-04s2t04.flac
    13:52.840     479715884 B   cxx   --   ---xx   flac  0.6384  gd1979-11-04s2t05.flac
    12:43.938     440028218 B   cxx   --   ---xx   flac  0.6277  gd1979-11-04s2t06.flac
     8:56.107     308797484 B   cxx   --   ---xx   flac  0.6336  gd1979-11-04s2t07.flac
     7:46.840     268899884 B   cxx   --   ---xx   flac  0.6163  gd1979-11-04s2t08.flac
     6:28.027     223503404 B   cxx   --   ---xx   flac  0.6088  gd1979-11-04s2t09.flac
     5:16.840     182499884 B   cxx   --   ---xx   flac  0.6379  gd1979-11-04s2t10.flac
    10:44.120     371013164 B   cxx   --   ---xx   flac  0.6300  gd1979-11-04s2t11.flac
     8:08.027     281103404 B   cxx   --   ---xx   flac  0.6474  gd1979-11-04s2t12.flac
     6:10.448     213378008 B   cxx   --   ---xx   flac  0.6420  gd1979-11-04s2t13.flac
   169:11.003    5846978694 B                            0.6348  (24 files)

No errors occured.

Show Checksums
flac-md5
f990cf730556b65d8321bed020a026ec *gd1979-11-04s1t01.flac
81d6ea3de32212b3791487e9657385d3 *gd1979-11-04s1t02.flac
40d93490eba2845005365bfa05873043 *gd1979-11-04s1t03.flac
973e43ee68627a1fd08ce60d0a1122c0 *gd1979-11-04s1t04.flac
dd1912310196b72e110211d955ff48d6 *gd1979-11-04s1t05.flac
29640ae5d9de4da7aa5bd24dc09bc6d0 *gd1979-11-04s1t06.flac
2895a27820e517071972d84ba545a7d4 *gd1979-11-04s1t07.flac
5d4451c2175f4e97a860a6e1f33faa38 *gd1979-11-04s1t08.flac
acc93c5b02bd27eeca864b66d000560d *gd1979-11-04s1t09.flac
530ade582206df04dc70242b32b2d3d1 *gd1979-11-04s1t10.flac
128b8b96c6972ced5158c2ef5e5bc303 *gd1979-11-04s1t11.flac
6dada10add33eee568b38520ab1365ca *gd1979-11-04s2t01.flac
296bb36436b4a9d59b75f5830ceba0ab *gd1979-11-04s2t02.flac
78bbeed941e9a1017bea1af96b039bc0 *gd1979-11-04s2t03.flac
a6fb43410fb91366053541b2603ef666 *gd1979-11-04s2t04.flac
1a892ea71b931c2716c974aa5ef72b6f *gd1979-11-04s2t05.flac
b42017169448d519ed17a4b3e6550bc8 *gd1979-11-04s2t06.flac
7938ab8c9900d66ab78ddbd7b42eb4eb *gd1979-11-04s2t07.flac
b31f6f761474064a7306644c16fb2c45 *gd1979-11-04s2t08.flac
d60d670de0df08b6db564708471c5f77 *gd1979-11-04s2t09.flac
a0db0b0935c21a3f06f568e63b2a7c2a *gd1979-11-04s2t10.flac
212b9cb8c8452396e72bf8b3533dd109 *gd1979-11-04s2t11.flac
032ef863827410ba15ecf709db3308a4 *gd1979-11-04s2t12.flac
8236ae43096ff494212d95ff497a19e4 *gd1979-11-04s2t13.flac
ffp
gd1979-11-04s1t01.flac:4ab6967ac79e9074c2317fb58b72cb33
gd1979-11-04s1t02.flac:372d68f26d7f9491b504e259f91868ac
gd1979-11-04s1t03.flac:b51ad7adeabab9349c68eb5847c176a0
gd1979-11-04s1t04.flac:762c1558cdd89faa780db5daa8f4b533
gd1979-11-04s1t05.flac:5f2c38a4e2685ad2ab1afebe1a1a998c
gd1979-11-04s1t06.flac:eaf655667cad7eebdd5e3d465b9c52b4
gd1979-11-04s1t07.flac:7efc44ebd40d8a7db25517570ddefed2
gd1979-11-04s1t08.flac:0e521d6c69a6faa2b39bef08a367e37e
gd1979-11-04s1t09.flac:296e3e5d598ae5850d764a7726404b75
gd1979-11-04s1t10.flac:445b50829cfafcb4447d63e63b7b882e
gd1979-11-04s1t11.flac:1bc48857654ab6b25405afe2b22ccceb
gd1979-11-04s2t01.flac:32bfd495a570103ce8d12dd994c44253
gd1979-11-04s2t02.flac:9068522ad54532e99e3744138d8bb0b3
gd1979-11-04s2t03.flac:d7de71884a25e93beef7323bf834236e
gd1979-11-04s2t04.flac:82b06dfcbe6021fa6a0c1e3c6ec7660d
gd1979-11-04s2t05.flac:38a7d3971dca6017af8a76e9df94000a
gd1979-11-04s2t06.flac:ba5fdb40801fd33b0bca857fad836398
gd1979-11-04s2t07.flac:db2f000b60a4c51678d6d5890105b48c
gd1979-11-04s2t08.flac:766e8844e561eadb6acd84ee55257893
gd1979-11-04s2t09.flac:a2345d63964e6efd94c9eac8dc11fb3f
gd1979-11-04s2t10.flac:4c71fce3ba3f5606384c9cf074c19d8a
gd1979-11-04s2t11.flac:aafbd64a6cf4e5566164b98cde6106b1
gd1979-11-04s2t12.flac:5c2bbb026fcc23d514c3910917c97620
gd1979-11-04s2t13.flac:f7e8253bbb6a6aa1ec6fa11586fd4653

Comments
Add Comment
Other Sources (comments)
Master Soundboard Cassette... (1) SB>MR>Dick Latvala's... (2) flac16; Unknown... (0) flac16; AUD: AKG... (2) flac16; Recording... (1) flac16/48kHz;... (0)
Date User Comment
02/02/2013 nfagdtrfb text file correction: taped by Tim Friend & Joe Morrone, thanks guys!
02/03/2013 Wharfrat73 Updated info file.