Browse Collections Artists Sources   Search Dates

Add Show    List Management    Help


Grateful Dead 11/04/79
Providence Civic Center, Providence, RI
Comments Add Comment    Source Collectors    Add to Collection    Add to Want List    History
Source # 101486 Other Sources
Entered by Gary Field
Checksums ffp , flac-md5
Disc Counts 2 / 3
Media Size
Date Circulated
Date Added
09/20/2009
09/20/2009
Source Summary flac16; AUD: AKG D200's > Technics RS-646DS (lead deck) > Sony TC-153SD (Tim's deck) > Maxell XL-II 90's. Mics on stand, set up behind the soundboard. Taped by Tim Friend & Joe Morrone. Transfer: MAC > Nakamichi DR-2 > Edirol FA-66 > Wavelab > CD-Wave > R8Brain TLH > FLAC 1644. Transfer by Andrew F. 09/2009 
  Archive
Source Information - Download Text | Download Zip
GRATEFUL DEAD
Civic Center
Providence RI
11-04-1979

Disc One (66:06)

01 crowd & tuning
02 Minglewood Blues
03 They Love Eachother
04 Me & My Uncle >
05 Big River
06 Althea
07 Easy to Love You
08 Brown Eyed Women
09 Lost Sailor >
10 Saint of Circumstance >
11 Deal
-- set break --

Disc Two (66:16)

01 crowd & tuning
02 Alabama Getaway >
03 Greatest Story Ever Told
04 Ship of Fools
05 Estimated Prophet >
06 He's Gone >
07 Jam >
08 Drums >

Disc Three (36:47)

01 Space >
02 The Other One >
03 Wharf Rat >
04 Around & Around
-- encore --
05 U.S. Blues

AUD: AKG D200's > Technics RS-646DS (lead deck) > Sony
TC-153SD (Tim's deck) > Maxell XL-II 90's. Mics on stand,
set up behind the soundboard. Taped by Tim Friend & Joe Morrone.

Transfer: MAC > Nakamichi DR-2 > Edirol FA-66 > Wavelab >
CD-Wave > R8Brain > TLH > FLAC 1644. Transfer by Andrew F.
09/2009

Notes: There was massive ear-splitting P.A. feedback in
Minglewood, at 4:37 > 5:08. A narrow filter was run in
Wavelab around 2.75kHz to dampen it, and volume adjusted.
An alternate AUD cassette (unknown lineage) covers tape
flips: He's Gone 9:32 > 10:11, Around & Around 5:13 > 5:43.
Second set disc break is seamless.

    length     expanded size    cdr  WAVE problems  fmt   ratio  filename
     0:43.31        7658156 B   ---   --   ---xx   flac  0.5302  gd1979-11-04d1t01.flac
     8:00.02       84676748 B   ---   --   ---xx   flac  0.5742  gd1979-11-04d1t02.flac
     8:50.12       93520268 B   ---   --   ---xx   flac  0.5356  gd1979-11-04d1t03.flac
     3:07.54       33113852 B   ---   --   ---xx   flac  0.5680  gd1979-11-04d1t04.flac
     6:37.05       70042604 B   ---   --   ---xx   flac  0.5611  gd1979-11-04d1t05.flac
     9:37.01      101785196 B   ---   --   ---xx   flac  0.5465  gd1979-11-04d1t06.flac
     4:15.22       45033788 B   ---   --   ---xx   flac  0.5641  gd1979-11-04d1t07.flac
     6:58.13       73765820 B   ---   --   ---xx   flac  0.5725  gd1979-11-04d1t08.flac
     6:27.11       68292716 B   ---   --   ---xx   flac  0.5567  gd1979-11-04d1t09.flac
     5:32.72       58734188 B   ---   --   ---xx   flac  0.5997  gd1979-11-04d1t10.flac
     5:57.69       63137132 B   ---   --   ---xx   flac  0.5987  gd1979-11-04d1t11.flac
     1:45.64       18672572 B   ---   --   ---xx   flac  0.5057  gd1979-11-04d2t01.flac
     5:26.22       57558188 B   ---   --   ---xx   flac  0.5807  gd1979-11-04d2t02.flac
     5:43.26       60566396 B   ---   --   ---xx   flac  0.5720  gd1979-11-04d2t03.flac
    10:01.32      106091708 B   ---   --   ---xx   flac  0.5283  gd1979-11-04d2t04.flac
    13:52.63      146913020 B   ---   --   ---xx   flac  0.5587  gd1979-11-04d2t05.flac
    12:43.70      134757884 B   ---   --   ---xx   flac  0.5341  gd1979-11-04d2t06.flac
     8:56.08       94569260 B   ---   --   ---xx   flac  0.5583  gd1979-11-04d2t07.flac
     7:46.63       82350620 B   ---   --   ---xx   flac  0.5102  gd1979-11-04d2t08.flac
     6:28.02       68447948 B   ---   --   ---xx   flac  0.4843  gd1979-11-04d3t01.flac
     5:16.63       55890620 B   ---   --   ---xx   flac  0.5685  gd1979-11-04d3t02.flac
    10:44.09      113622812 B   ---   --   ---xx   flac  0.5478  gd1979-11-04d3t03.flac
     8:08.02       86087948 B   ---   --   ---xx   flac  0.5893  gd1979-11-04d3t04.flac
     6:10.35       65350364 B   ---   --   ---xx   flac  0.5787  gd1979-11-04d3t05.flac
   169:11.01     1790639808 B                            0.5547  (24 files)

No errors occured.

Show Checksums
ffp
gd1979-11-04d1t01.flac:42da9171fcb4c01e97b0b9366bbcdb03
gd1979-11-04d1t02.flac:f736aead0617f3265bc4711e52805ef9
gd1979-11-04d1t03.flac:b6d19951e845cbf61d804785fb75f002
gd1979-11-04d1t04.flac:10863709b108c0b98f097bde639c94f9
gd1979-11-04d1t05.flac:06bc48386297628d900be2012601f382
gd1979-11-04d1t06.flac:d21d9a2f465c57e2ac4fd220dbed1d21
gd1979-11-04d1t07.flac:a080e07fe5a3d99e1d03b0f8aca0d8f8
gd1979-11-04d1t08.flac:3f40710d246372e824f6b2b82ef822c9
gd1979-11-04d1t09.flac:14deae6a0686836d89d9f97ecd858113
gd1979-11-04d1t10.flac:aeb314037f95587b99c74e2a027036e6
gd1979-11-04d1t11.flac:787d83475a7691d566d01cbdbc74b2bf
gd1979-11-04d2t01.flac:ad19a548ed604e6460f4ba6cfcd39130
gd1979-11-04d2t02.flac:9a005ae5ca2b5ab14cd3aae27d5d7078
gd1979-11-04d2t03.flac:847150b15cead3320d70b1c302fd095b
gd1979-11-04d2t04.flac:1c68fe13f8c5db5cd1b897cbd7bac224
gd1979-11-04d2t05.flac:627982c9bf7ee18cd2710d295e105357
gd1979-11-04d2t06.flac:ef25e894714699f240702001c207bb40
gd1979-11-04d2t07.flac:d9aefd5c5f584e8853ee4ff0e11b3ddf
gd1979-11-04d2t08.flac:cbe9074f3982e52bfc065c3d5c08d5f6
gd1979-11-04d3t01.flac:a8f196836998d82c924ab881aa56290f
gd1979-11-04d3t02.flac:e35627156f866c5306569aef138968f4
gd1979-11-04d3t03.flac:d51b5fdb6210522efff3b107b502dfca
gd1979-11-04d3t04.flac:4dd6846f74ce9993cb74aecc6100752a
gd1979-11-04d3t05.flac:7ef0ac57789817516e8cde911ec27c99
flac-md5
2e01d3cc65de6416cbb7a8831daa4e0f *gd1979-11-04d1t01.flac
31730499e7768264efce04e5a8572bab *gd1979-11-04d1t02.flac
9d664e7de35e8be7d7fc2ddba1883b9e *gd1979-11-04d1t03.flac
b57dfb208c85288ad5528c7237c3ca89 *gd1979-11-04d1t04.flac
4f08f271aa65233504b71e9d669a0d4f *gd1979-11-04d1t05.flac
c8714bcf0e3f7c42ffffea5916d36d51 *gd1979-11-04d1t06.flac
caa9b0ec4caa69f5c206f1cf1a49f147 *gd1979-11-04d1t07.flac
c8e4006fa6f452926aedef4456a6cd75 *gd1979-11-04d1t08.flac
c7959dbc5681e1e57bbabd7f7850468f *gd1979-11-04d1t09.flac
1422223f6f264bc605a9fc1889cbace4 *gd1979-11-04d1t10.flac
d634ee94f26605c2e320fd5373c1cc80 *gd1979-11-04d1t11.flac
8471f56e7d91316fd3f4822280b5913c *gd1979-11-04d2t01.flac
e78aa92604effae33b12fe62c86cd2e3 *gd1979-11-04d2t02.flac
fbda81765d5627fbe3fa75d1619318b5 *gd1979-11-04d2t03.flac
6f14f7447c929b5bad8c199567e4ab79 *gd1979-11-04d2t04.flac
18466d84c6f3adaa7179796fa1de124e *gd1979-11-04d2t05.flac
d1679935d892701f6555cddf9fecaaa5 *gd1979-11-04d2t06.flac
b1f955288029e43dbe231cb39730ab08 *gd1979-11-04d2t07.flac
ec188fdce744bb7455f90b6b03de6072 *gd1979-11-04d2t08.flac
529d92a60653c93ddb7311f57047010c *gd1979-11-04d3t01.flac
1af8b55419c22ed3ae257ff73ae3404f *gd1979-11-04d3t02.flac
9ae89aae793230650b902bb57551ad5e *gd1979-11-04d3t03.flac
8c26a4d37ff3a09a4ea9db9cff358da8 *gd1979-11-04d3t04.flac
0ec1ec43141839dc48ab6e1f103ed78f *gd1979-11-04d3t05.flac

Comments
Add Comment
Other Sources (comments)
Master Soundboard Cassette... (1) SB>MR>Dick Latvala's... (2) flac16; Unknown... (0) flac24; AUD: AKG... (2) flac16; Recording... (1) flac16/48kHz;... (0)
Date User Comment
02/02/2013 nfagdtrfb text file correction: taped by Tim Friend & Joe Morrone, thanks guys!
02/03/2013 Wharfrat73 Updated info file.