Browse Collections Artists Sources   Search Dates

Add Show    List Management    Help


Grateful Dead 07/04/87
Sullivan Stadium, Foxboro, MA
Comments Add Comment    Source Collectors    Add to Collection    Add to Want List    History
Source # 101650 Other Sources
Entered by Gary Field
Checksums ffp , flac-md5
Disc Counts 2 / 3
Media Size
Date Circulated
Date Added
09/29/2009
09/29/2009
Source Summary flac16; Recording Info: SBD -> Cassette Master -> CD; Transfer Info: CD -> Samplitude Professional v10.02 -> FLAC; All Transfers and Mastering By Charlie Miller 
  Archive
Source Information - Download Text | Download Zip
Grateful Dead - July 4, 1987
Sullivan Stadium - Foxboro, MA

Recording Info:
SBD -> Cassette Master -> CD

Transfer Info:
CD -> Samplitude Professional v10.02 -> FLAC
(3 Discs Audio / 2 Discs FLAC)

All Transfers and Mastering By Charlie Miller
[email protected]
July 24, 2008

Patch Info:
Sennheiser ME80 -> Cassette Master -> CD (shnid=3858) supplies:
Space (1:24 - 1:42)

Notes:
-- Set 1 is seamless
-- Set 2 with Bob Dylan

Set 1:
d1t01 - Touch Of Grey
d1t02 - Hell In A Bucket
d1t03 - West L.A. Fadeaway
d1t04 - Tons Of Steel
d1t05 - Little Red Rooster
d1t06 - Box Of Rain
d1t07 - Althea
d2t01 - Uncle John's Band ->
d2t02 - Playing In The Band ->
d2t03 - Drums ->
d2t04 - Space ->
d2t05 - Truckin' ->
d2t06 - The Other One ->
d2t07 - Wharf Rat ->
d2t08 - Throwing Stones

Set 2:
d3t01 - Tuning
d3t02 - The Times They Are A-Changin'
d3t03 - Man Of Peace
d3t04 - I'll Be Your Baby Tonight
d3t05 - John Brown
d3t06 - I Want You
d3t07 - Ballad Of A Thin Man
d3t08 - Stuck Inside Of Mobile With The Memphis Blues Again
d3t09 - Queen Jane Approximately
d3t10 - Chimes Of Freedom
d3t11 - Slow Train
d3t12 - Joey
d3t13 - All Along The Watchtower

Encore:
d3t14 - Knockin' On Heaven's Door


SHNTOOL OUTPUT:
    length     expanded size   cdr  WAVE problems filename
     7:45.23       82080140    ---   --   -----   gd87-07-04d1t01.wav
     5:59.10       63351164    ---   --   -----   gd87-07-04d1t02.wav
     8:31.61       90283916    ---   --   -----   gd87-07-04d1t03.wav
     6:09.36       65176316    ---   --   -----   gd87-07-04d1t04.wav
    11:11.40      118458524    ---   --   -----   gd87-07-04d1t05.wav
     5:16.67       55900028    ---   --   -----   gd87-07-04d1t06.wav
     8:40.39       91819772    ---   --   -----   gd87-07-04d1t07.wav
     7:03.73       74788940    ---   --   -----   gd87-07-04d2t01.wav
     9:15.14       97934972    ---   --   -----   gd87-07-04d2t02.wav
     6:34.31       69574556    ---   --   -----   gd87-07-04d2t03.wav
     5:31.27       58451948    ---   --   -----   gd87-07-04d2t04.wav
     6:05.16       64423676    ---   --   -----   gd87-07-04d2t05.wav
     4:18.62       45657068    ---   --   -----   gd87-07-04d2t06.wav
     7:56.55       84095804    ---   --   -----   gd87-07-04d2t07.wav
     9:27.42      100117628    ---   --   -----   gd87-07-04d2t08.wav
     0:43.07        7601708    ---   --   -----   gd87-07-04d3t01.wav
     4:57.23       52444940    ---   --   -----   gd87-07-04d3t02.wav
     4:56.15       52249724    ---   --   -----   gd87-07-04d3t03.wav
     5:05.43       53903180    ---   --   -----   gd87-07-04d3t04.wav
     6:42.67       71070428    ---   --   -----   gd87-07-04d3t05.wav
     4:26.45       47028284    ---   --   -----   gd87-07-04d3t06.wav
     5:39.35       59881964    ---   --   -----   gd87-07-04d3t07.wav
     6:54.66       73184876    ---   --   -----   gd87-07-04d3t08.wav
     6:41.05       70748204    ---   --   -----   gd87-07-04d3t09.wav
     6:30.25       68854844    ---   --   -----   gd87-07-04d3t10.wav
     5:19.52       56393948    ---   --   -----   gd87-07-04d3t11.wav
    10:14.65      108462524    ---   --   -----   gd87-07-04d3t12.wav
     5:06.44       54081932    ---   --   -----   gd87-07-04d3t13.wav
     6:37.24       70087292    ---   --   -----   gd87-07-04d3t14.wav
   189:43.62     2008108300 B                     (totals for 29 files)
Show Checksums
ffp
gd87-07-04d1t01.flac:562f7f3838efe51c8b402e112d6f5ce3
gd87-07-04d1t02.flac:a802386a074a516c37c1e175b36591fa
gd87-07-04d1t03.flac:b302e42ae3dcffb09cf9e065a81de22d
gd87-07-04d1t04.flac:9c0cf0fd68954eff398998af61d9728e
gd87-07-04d1t05.flac:518f291b8044db670da959af024bd843
gd87-07-04d1t06.flac:1113901737dac3a887114e44a11dcfea
gd87-07-04d1t07.flac:b5b77ae8144f5d6c10e8d48c78f08b4d
gd87-07-04d2t01.flac:4c7047b49bab450ba247c52e8f34204d
gd87-07-04d2t02.flac:c217303c077fb6e2efea56d85b7519a7
gd87-07-04d2t03.flac:7d4fb081d00ebda132894b30b7bd5060
gd87-07-04d2t04.flac:addd28e3adfc53cd028b5b675ea709b6
gd87-07-04d2t05.flac:f5f3f2c4c0c7243da0ee26c0901e03bc
gd87-07-04d2t06.flac:78fe18f43cb27acc43d824d5503a41e6
gd87-07-04d2t07.flac:3fae1d0d7e0d5a1fa89a234eaefddc01
gd87-07-04d2t08.flac:d881fee72073d26794289b577d15fc0a
gd87-07-04d3t01.flac:17c54598004dd2837327410093ca5e7f
gd87-07-04d3t02.flac:f6526ca3ab4cf1cae29b19dc0779d1f4
gd87-07-04d3t03.flac:6fc3d08a6338653c238fadebbba73084
gd87-07-04d3t04.flac:da9825f4f8a9e6563abac93439ff3ee1
gd87-07-04d3t05.flac:b4c1497e6f6e965def8db10465313f4d
gd87-07-04d3t06.flac:feb0bfa33a0f2b9c193959f8514bd6d8
gd87-07-04d3t07.flac:85fb485f2d08a03a7028ae5f088d0222
gd87-07-04d3t08.flac:6eae51c5e4c86fad45665151cca4debb
gd87-07-04d3t09.flac:4c514ad5290d891be32645a1388d32de
gd87-07-04d3t10.flac:f204a1256812f150c93f872380b69fff
gd87-07-04d3t11.flac:44470a50720ce45a46edae2b83626daf
gd87-07-04d3t12.flac:e547f5516355aebca50bc61a502ecb28
gd87-07-04d3t13.flac:0f48c50e2b57c7d62169eddd5c99df81
gd87-07-04d3t14.flac:e334af0f903e00ce2467f8d1d053f172
flac-md5
efbe43985934ec436870a8bcaf242885 *gd87-07-04d1t01.flac
2cfcf8c689cc8e6141958627085ce9be *gd87-07-04d1t02.flac
15bb718b56b696ab160ac0f11a719ba8 *gd87-07-04d1t03.flac
8c959505f414cf737a27cb548e322686 *gd87-07-04d1t04.flac
572f4ead0a0940ba503c6b17bfefcf1d *gd87-07-04d1t05.flac
cb061290cb2c561c2de1e0cb726d546e *gd87-07-04d1t06.flac
b907dbb6723ded867d82c62e961c52b5 *gd87-07-04d1t07.flac
b9ed18844e49722450ddf992b25536a7 *gd87-07-04d2t01.flac
d5444a6d50df6dc75ee1df8e9fca1627 *gd87-07-04d2t02.flac
cfc24245375ceb1379bd6976ff7df8bc *gd87-07-04d2t03.flac
becfccef4e7f95222e1535a17f9bff42 *gd87-07-04d2t04.flac
10d9dfdbf9f247b4502afc8acd6d6612 *gd87-07-04d2t05.flac
f302d73d0f33763071be38c785e766e3 *gd87-07-04d2t06.flac
5e2d64b042f6bbd2804de4493f9dea73 *gd87-07-04d2t07.flac
a08812b9481a17d1c089e23351c60b72 *gd87-07-04d2t08.flac
bafdabdf65dc33493a6f095d1a2d941f *gd87-07-04d3t01.flac
0e6d6085ef369d8e750f09c7a50a06d9 *gd87-07-04d3t02.flac
1e16173041fb89b4e007eae09675e92d *gd87-07-04d3t03.flac
1185e305f2a8bd8a2d89d3fdf9b8b50f *gd87-07-04d3t04.flac
481e5b5a4be0078f7891c775a45faf22 *gd87-07-04d3t05.flac
3db56c3d29c628e50430187ac6434d68 *gd87-07-04d3t06.flac
071dfcd734ea26943674ec714219787f *gd87-07-04d3t07.flac
c98fbed4a82c7526f1b1619b86c62428 *gd87-07-04d3t08.flac
5bceca4a31b10a2742ec3761aa7931cb *gd87-07-04d3t09.flac
c9ad39d6d8c2f2ea6d2c0750db5b778e *gd87-07-04d3t10.flac
162560f88917a26b6d4cf027a598b657 *gd87-07-04d3t11.flac
bcba857d993bfd02fd8efaea401574aa *gd87-07-04d3t12.flac
f3cad27deba6902ef913f7c62aa3cb5e *gd87-07-04d3t13.flac
463e7500875da745c83ed2b264e3a1b0 *gd87-07-04d3t14.flac

Comments
Add Comment
Other Sources (comments)
FOB> aud> senn me80>... (1) FOB> aud> senn me80>... (0) flac16; AUD Source:... (0) Soundboard > ? > SHN (0) flac16; Master:... (0) flac24; source:... (0) flac16; Dan... (0) flac16; Matrix 2... (0) DTS-Audio-CD 5.1... (0) flac16/48kHz; 5.1... (0)
Date User Comment