Browse Collections Artists Sources   Search Dates

Add Show    List Management    Help


Grateful Dead 07/10/87
John F Kennedy Stadium, Philadelphia, PA
Comments Add Comment    Source Collectors    Add to Collection    Add to Want List    History
Source # 101651 Other Sources
Entered by dr.unclear
Checksums ffp , flac-md5
Disc Counts 2 / 3
Media Size
Date Circulated
Date Added
09/30/2009
09/29/2009
Source Summary flac16; Recording Info: SBD -> Cassette Master -> CD; Transfer Info: CD -> Samplitude Professional v10.02 -> FLAC; All Transfers and Mastering By Charlie Miller 
  Archive
Source Information - Download Text | Download Zip
Grateful Dead - July 10, 1987
JFK Stadium - Philadelphia, PA

Recording Info:
SBD -> Cassette Master -> CD

Transfer Info:
CD -> Samplitude Professional v10.02 -> FLAC
(3 Discs Audio / 2 Discs FLAC)

All Transfers and Mastering By Charlie Miller
[email protected]
July 30, 2008

Patch Info:
Sennheiser ME80 -> Cassette Master -> CD (shnid=3859) supplies:
Terrapin Station (0:11 - 0:23)

Notes:
-- Set 1 is seamless
-- Set 2 with Bob Dylan

Set 1:
d1t01 - Tuning
d1t02 - Iko Iko
d1t03 - Jack Straw
d1t04 - Sugaree
d1t05 - New Minglewood Blues
d1t06 - Althea
d1t07 - My Brother Esau
d1t08 - Take A Step Back / Mexican Hat Dance Tuning
d1t09 - When Push Comes To Shove
d1t10 - Cassidy
d1t11 - China Cat Sunflower ->
d1t12 - I Know You Rider
d2t01 - Looks Like Rain ->
d2t02 - Terrapin Station ->
d2t03 - Drums ->
d2t04 - Space ->
d2t05 - I Need A Miracle ->
d2t06 - Black Peter ->
d2t07 - Around And Around ->
d2t08 - One More Saturday Night

Set 2:
d3t01 - Tangled Up In Blue
d3t02 - I'll Be Your Baby Tonight
d3t03 - Man Of Peace
d3t04 - The Ballad Of Frankie Lee And Judas Priest
d3t05 - John Brown
d3t06 - Simple Twist Of Fate
d3t07 - Ballad Of A Thin Man
d3t08 - Stuck Inside Of Mobile With The Memphis Blues Again
d3t09 - Chimes Of Freedom
d3t10 - Queen Jane Approximately
d3t11 - Gotta Serve Somebody
d3t12 - Joey
d3t13 - All Along The Watchtower

Encore:
d3t14 - Touch Of Grey


SHNTOOL OUTPUT:
    length     expanded size   cdr  WAVE problems filename
     0:51.06        9010556    ---   --   -----   gd87-07-10d1t01.wav
     7:39.55       81097004    ---   --   -----   gd87-07-10d1t02.wav
     6:14.63       66121820    ---   --   -----   gd87-07-10d1t03.wav
     8:34.54       90796652    ---   --   -----   gd87-07-10d1t04.wav
     8:38.65       91528124    ---   --   -----   gd87-07-10d1t05.wav
     7:16.47       77020988    ---   --   -----   gd87-07-10d1t06.wav
     4:57.01       52393196    ---   --   -----   gd87-07-10d1t07.wav
     1:34.06       16595756    ---   --   -----   gd87-07-10d1t08.wav
     6:03.52       64155548    ---   --   -----   gd87-07-10d1t09.wav
     7:58.48       84432140    ---   --   -----   gd87-07-10d1t10.wav
     5:13.74       55387292    ---   --   -----   gd87-07-10d1t11.wav
     6:30.26       68857196    ---   --   -----   gd87-07-10d1t12.wav
     8:25.04       89091452    ---   --   -----   gd87-07-10d2t01.wav
    10:42.08      113267660    ---   --   -----   gd87-07-10d2t02.wav
     9:30.28      100613900    ---   --   -----   gd87-07-10d2t03.wav
     4:58.30       52637804    ---   --   -----   gd87-07-10d2t04.wav
     4:36.68       48846380    ---   --   -----   gd87-07-10d2t05.wav
     7:49.35       82813964    ---   --   -----   gd87-07-10d2t06.wav
     4:17.53       45459500    ---   --   -----   gd87-07-10d2t07.wav
     5:13.55       55342604    ---   --   -----   gd87-07-10d2t08.wav
     5:26.52       57628748    ---   --   -----   gd87-07-10d3t01.wav
     5:09.51       54627596    ---   --   -----   gd87-07-10d3t02.wav
     4:50.01       51158396    ---   --   -----   gd87-07-10d3t03.wav
     5:18.12       56123468    ---   --   -----   gd87-07-10d3t04.wav
     6:13.39       65888972    ---   --   -----   gd87-07-10d3t05.wav
     5:58.51       63271196    ---   --   -----   gd87-07-10d3t06.wav
     5:27.56       57814556    ---   --   -----   gd87-07-10d3t07.wav
     6:35.59       69816812    ---   --   -----   gd87-07-10d3t08.wav
     5:54.67       62603228    ---   --   -----   gd87-07-10d3t09.wav
     1:08.06       12009356    ---   --   -----   gd87-07-10d3t10.wav
     4:20.27       45927548    ---   --   -----   gd87-07-10d3t11.wav
     9:35.47      101540588    ---   --   -----   gd87-07-10d3t12.wav
     7:32.39       79824572    ---   --   -----   gd87-07-10d3t13.wav
     6:18.07       66695708    ---   --   -----   gd87-07-10d3t14.wav
   206:57.17     2190400280 B                     (totals for 34 files)
Show Checksums
ffp
gd87-07-10d1t01.flac:652cb00d2317d2814506ae10258b97be
gd87-07-10d1t02.flac:d8ed35512d5daa1186423e9e608398ab
gd87-07-10d1t03.flac:fbc9a8c6f8f4e36bca483a7b297e257e
gd87-07-10d1t04.flac:9dd6ed9a3459b182a739935f5f584d55
gd87-07-10d1t05.flac:580db79633e3dfebba2605648ae528ad
gd87-07-10d1t06.flac:b0a9c5f08dccd886448eaa55069d69c2
gd87-07-10d1t07.flac:be20c04cf46715b830d80b0346bec8e1
gd87-07-10d1t08.flac:92104b82b4e58f75744424ba58a72552
gd87-07-10d1t09.flac:916347e54b821cdfb959f6580fa3d56f
gd87-07-10d1t10.flac:5bcfebb855c016ef56508ae6d8822226
gd87-07-10d1t11.flac:0231d5de93644721899817ff9423cf69
gd87-07-10d1t12.flac:2ae5994128724a4d497ef9eba583a8fc
gd87-07-10d2t01.flac:f6faa6e7416c1e35305cb8f07daa988b
gd87-07-10d2t02.flac:3caa5c2520afcf81882a0c0d69cdc3a9
gd87-07-10d2t03.flac:37d6ce55c648b2759658d60c643197b9
gd87-07-10d2t04.flac:f888dc72cdb3447bea996692bfef6aa3
gd87-07-10d2t05.flac:5dac6e048fc0961a1ab587d62fe7d59f
gd87-07-10d2t06.flac:6de472dbf8834b5b0fda8fdc5b47ef10
gd87-07-10d2t07.flac:ce10180d9da796d3c6b78f0bc3c3b428
gd87-07-10d2t08.flac:6814c0249912a84f5222a942fa46eeb5
gd87-07-10d3t01.flac:add45cefda1c4da4bd565a3d73fca41f
gd87-07-10d3t02.flac:c7353c782da30775e614348e93ccc64c
gd87-07-10d3t03.flac:9617dca0f37d2951445aebd7375e7a94
gd87-07-10d3t04.flac:21830ebf42f2fc67b511fa0add7c568a
gd87-07-10d3t05.flac:5c1733dc5038ba848a96f9b8e3599a9e
gd87-07-10d3t06.flac:843c5017b7e23a9c6bd75e8fc3a73a0f
gd87-07-10d3t07.flac:38b4f06c9374c5494eca2bfb6c6b1d72
gd87-07-10d3t08.flac:bd18765a39782314d148cd18862213ce
gd87-07-10d3t09.flac:72f90a3c9b64484a8800ed8b5370c852
gd87-07-10d3t10.flac:cbe2c75318061bd31e9c74a0b73dc780
gd87-07-10d3t11.flac:e28ad6eb0a14fe22fb7d5a8d8c204c51
gd87-07-10d3t12.flac:cbb0b94cbdf40d8a9aaa7d526667a9f0
gd87-07-10d3t13.flac:45577cbc76e79da2e07c11afc12835e9
gd87-07-10d3t14.flac:ac6cf371434ec0a47ac0e8e2b751cab8
flac-md5
52221d104c5f749971abcb3d5810b1e3 *gd87-07-10d1t01.flac
57a18269a61f7a261ba94d046d4ccf71 *gd87-07-10d1t02.flac
33cbbcf15ce85db0ee75910518fc8d5b *gd87-07-10d1t03.flac
85cd0a8f13dc8b625feeebe5842d8571 *gd87-07-10d1t04.flac
b34e0b49622e1ab542598a66168502bb *gd87-07-10d1t05.flac
0b266e06c0cfc5de3abb0ff28a672364 *gd87-07-10d1t06.flac
6f5b3b8055ff6cff6b447b894f650c1b *gd87-07-10d1t07.flac
826e65d223de6c4555a9c0715f01b57a *gd87-07-10d1t08.flac
779b2aa23cece510b40046a6f1bc7eee *gd87-07-10d1t09.flac
80606b3bf70cf0c343e37c6ebc22e0cc *gd87-07-10d1t10.flac
6352dcd4b613d5faad78563501708f6e *gd87-07-10d1t11.flac
3c794b074f6259d43fc0f5a4739c3141 *gd87-07-10d1t12.flac
aea56a67492874cf9a580da18b88d5c4 *gd87-07-10d2t01.flac
a590c31fcb286759259518b22138f021 *gd87-07-10d2t02.flac
16149ffea96c55eaee16669304d18307 *gd87-07-10d2t03.flac
38c78d423312cce6e1e042e7e0003079 *gd87-07-10d2t04.flac
c7e9ed71d9c69aa1d48d9920a3927c38 *gd87-07-10d2t05.flac
f477104cb27ffb9d0c3b4b07102bb75a *gd87-07-10d2t06.flac
406516f2a3d22e00b30a9ea4e19b59e2 *gd87-07-10d2t07.flac
2f6214730c7365a28f8d49aa15141083 *gd87-07-10d2t08.flac
8d6bef22ff112925e7c7922cbb8dc6d5 *gd87-07-10d3t01.flac
7735f99eb37f906c2e0ca718e4589f35 *gd87-07-10d3t02.flac
b6b8751a5824490e81c534c8c6b5032e *gd87-07-10d3t03.flac
113488ea39ce553a47ce87f7f0b53d48 *gd87-07-10d3t04.flac
739ad9c39df97f35bd86e6a8c8b0a1a6 *gd87-07-10d3t05.flac
5d8d6250ab9477a00a79bd1ee0c17f0d *gd87-07-10d3t06.flac
e8a92c7771942118977bf4fec24ab675 *gd87-07-10d3t07.flac
9ad38ae15dadddf71f9af7e028900239 *gd87-07-10d3t08.flac
efd33a9b6190f779e57dd553163ace8b *gd87-07-10d3t09.flac
02cced052f9941fedb53c7eccc2fcc2a *gd87-07-10d3t10.flac
c2f2d674cb9dc5bbd51573ebc6d5248d *gd87-07-10d3t11.flac
e22ba087d6fecb1cba567c2c96dda9a6 *gd87-07-10d3t12.flac
8784a2f09fce0a34a372eedcf6e4f2a7 *gd87-07-10d3t13.flac
0f9447f667fdcb3b0b4cc2ee47ec0cb2 *gd87-07-10d3t14.flac

Comments
Add Comment
Other Sources (comments)
FOB> aud> senn me80>... (0) flac16; AUD:... (0) Soundboard (except Queen... (1) Soundboard > ? > SHN (One... (0) flac16; Nak 300 Mics... (0) flac16; Set 1 Only... (0) flac16; Matrix 2... (1) DTS-Audio-CD 5.1... (0) flac16/48kHz; 5.1... (0)
Date User Comment