Browse Collections Artists Sources   Search Dates

Add Show    List Management    Help


Grateful Dead 09/06/80
State Fairgrounds, Lewiston, ME
Comments Add Comment    Source Collectors    Add to Collection    Add to Want List    History
Source # 101684 Other Sources
Entered by Gary Field
Checksums ffp , flac-md5
Disc Counts 0 / 0
Media Size
Date Circulated
Date Added
09/30/2009
09/30/2009
Source Summary flac24; AUD: 2x Nakamichi CM300 w/CP4 shotguns > Nakamichi 550 > Maxell XL-II 90's. Mics on stand FOB, near the soundboard. Taped by Tim Friend & Joe Morrone. Transfer: MAC > Nakamichi DR-2 > Edirol FA-66 > Wavelab > CD-Wave > TLH > FLAC 2496. Transfer by Andrew F. 09/2009 
  Archive
Source Information - Download Text | Download Zip
GRATEFUL DEAD
State Fairgrounds
Lewiston ME
09-06-1980

24bit/96kHz file-set

s1t01 crowd & tuning
s1t02 Alabama Getaway >
s1t03 Greatest Story Ever Told
s1t04 Sugaree
s1t05 Me & My Uncle >
s1t06 Mexicali Blues
s1t07 Tennessee Jed
s1t08 Feel Like a Stranger
s1t09 take a step back
s1t10 Friend of the Devil
s1t11 Far From Me >
s1t12 Little Red Rooster
s1t13 China Cat Sunflower >
s1t14 I Know You Rider >
s1t15 The Promised Land

s2t01 crowd & tuning
s2t02 Shakedown Street >
s2t03 Lost Sailor >
s2t04 Saint of Circumstance
s2t05 Althea
s2t06 crowd & tuning
s2t07 Playin' in the Band >
s2t08 Uncle John's Band >
s2t09 Drums >
s2t10 Space >
s2t11 Not Fade Away >
s2t12 The Wheel >
s2t13 Uncle John's Band Reprise >
s2t14 Playin' in the Band Reprise >
s2t15 Sugar Magnolia
s2t16 crowd & tuning
s2t17 Encore: One More Saturday Night >
s2t18 Encore: Brokedown Palace

AUD: 2x Nakamichi CM300 w/CP4 shotguns > Nakamichi 550 >
Maxell XL-II 90's. Mics on stand FOB, near the soundboard.
Taped by Tim Friend & Joe Morrone.

Transfer: MAC > Nakamichi DR-2 > Edirol FA-66 > Wavelab >
CD-Wave > TLH > FLAC 2496. Transfer by Andrew F. 09/2009

Notes: There is no wind noise on this recording. Tape
flips patched with ID-93783: Rooster 7:42 > 7:55, crowd
at end of Saint 6:06 > 6:28, and Drums 12:04 > 12:19.

    length     expanded size    cdr  WAVE problems  fmt   ratio  filename
     2:33.107      88189484 B   cxx   --   ---xx   flac  0.6149  gd1980-09-06s1t01.flac
     5:14.453     181125164 B   cxx   --   ---xx   flac  0.6458  gd1980-09-06s1t02.flac
     4:25.092     152693210 B   cxx   --   ---xx   flac  0.6418  gd1980-09-06s1t03.flac
    15:42.275     542750714 B   cxx   --   ---xx   flac  0.6371  gd1980-09-06s1t04.flac
     2:57.960     102505004 B   cxx   --   ---xx   flac  0.6416  gd1980-09-06s1t05.flac
     5:09.934     178522052 B   cxx   --   ---xx   flac  0.6378  gd1980-09-06s1t06.flac
    10:09.635     351149546 B   cxx   --   ---xx   flac  0.6331  gd1980-09-06s1t07.flac
    11:26.947     395681324 B   cxx   --   ---xx   flac  0.6366  gd1980-09-06s1t08.flac
     0:49.688      28620380 B   cxx   --   ---xx   flac  0.6191  gd1980-09-06s1t09.flac
     9:54.087     342194132 B   cxx   --   ---xx   flac  0.6352  gd1980-09-06s1t10.flac
     4:11.493     144860204 B   cxx   --   ---xx   flac  0.6391  gd1980-09-06s1t11.flac
     9:42.419     335473298 B   cxx   --   ---xx   flac  0.6362  gd1980-09-06s1t12.flac
     6:00.707     207767084 B   cxx   --   ---xx   flac  0.6398  gd1980-09-06s1t13.flac
     5:23.053     186078764 B   cxx   --   ---xx   flac  0.6480  gd1980-09-06s1t14.flac
     4:17.198     148145876 B   cxx   --   ---xx   flac  0.6486  gd1980-09-06s1t15.flac
     1:42.237      58888808 B   cxx   --   ---xx   flac  0.6169  gd1980-09-06s2t01.flac
    11:53.813     411156524 B   cxx   --   ---xx   flac  0.6447  gd1980-09-06s2t02.flac
     5:47.613     200225324 B   cxx   --   ---xx   flac  0.6410  gd1980-09-06s2t03.flac
     6:39.787     230277170 B   cxx   --   ---xx   flac  0.6463  gd1980-09-06s2t04.flac
     8:46.560     303298604 B   cxx   --   ---xx   flac  0.6388  gd1980-09-06s2t05.flac
     3:21.158     115867094 B   cxx   --   ---xx   flac  0.6210  gd1980-09-06s2t06.flac
     9:41.973     335216684 B   cxx   --   ---xx   flac  0.6421  gd1980-09-06s2t07.flac
     7:45.813     268308524 B   cxx   --   ---xx   flac  0.6487  gd1980-09-06s2t08.flac
    13:15.587     458257964 B   cxx   --   ---xx   flac  0.6199  gd1980-09-06s2t09.flac
     3:30.192     121070540 B   cxx   --   ---xx   flac  0.6131  gd1980-09-06s2t10.flac
     6:34.053     226974764 B   cxx   --   ---xx   flac  0.6361  gd1980-09-06s2t11.flac
     5:11.027     179151404 B   cxx   --   ---xx   flac  0.6345  gd1980-09-06s2t12.flac
     3:13.093     111221804 B   cxx   --   ---xx   flac  0.6401  gd1980-09-06s2t13.flac
     3:05.120     106629164 B   cxx   --   ---xx   flac  0.6409  gd1980-09-06s2t14.flac
     9:23.213     324410924 B   cxx   --   ---xx   flac  0.6482  gd1980-09-06s2t15.flac
     0:49.183      28329254 B   cxx   --   ---xx   flac  0.6166  gd1980-09-06s2t16.flac
     4:39.667     161088044 B   cxx   --   ---xx   flac  0.6487  gd1980-09-06s2t17.flac
     5:47.203     199988852 B   cxx   --   ---xx   flac  0.6370  gd1980-09-06s2t18.flac
   209:05.341    7226117682 B                            0.6378  (33 files)

No errors occured.

Show Checksums
ffp
gd1980-09-06s1t01.flac:52246d0f3f77621b55acc7ee4dc2dad3
gd1980-09-06s1t02.flac:3f23f02896ffcdc280326adf08df5d80
gd1980-09-06s1t03.flac:0599d07f8890cc786048974494507439
gd1980-09-06s1t04.flac:edbf930af006e02bc3d88c900409689d
gd1980-09-06s1t05.flac:1e6fa1e37d128f3dc9f45d012e5a24a4
gd1980-09-06s1t06.flac:1e28cafe89d8f5d9f3a11945a2950277
gd1980-09-06s1t07.flac:0d74c921c58a9e70f0081f54a0763c21
gd1980-09-06s1t08.flac:e6ed385da947ee03b3f4b0d08868e404
gd1980-09-06s1t09.flac:ccb34e905d9c660beaf5eeda3545dae8
gd1980-09-06s1t10.flac:fe18791514b89d6fdea762a9325224aa
gd1980-09-06s1t11.flac:92e3bbcd5c2b36b103406344dd7dfc1f
gd1980-09-06s1t12.flac:39c7c36325e305a372c21ad5cb86100d
gd1980-09-06s1t13.flac:8c661550f42890f3b82ceee9773f8fb6
gd1980-09-06s1t14.flac:c7589b3ba58f2ebcc0c3ba54781d85eb
gd1980-09-06s1t15.flac:d8c36a4178c339289300de9955a5765c
gd1980-09-06s2t01.flac:976ad9b3997978705ca36fa09d05582c
gd1980-09-06s2t02.flac:6006acecb3ae6cf383b6827ca5003733
gd1980-09-06s2t03.flac:6aeac75bca07396d33f0a22093211a6e
gd1980-09-06s2t04.flac:f2aec79a93421cdcf7effe50079786f0
gd1980-09-06s2t05.flac:31b90ae57d634c6fc9fc555e7a76843d
gd1980-09-06s2t06.flac:5f54fb9222462d31b774f8646d929a86
gd1980-09-06s2t07.flac:7799deee80e110ffb8d029e656e41831
gd1980-09-06s2t08.flac:0934b6c58eb803aa83431b74ff6fcd19
gd1980-09-06s2t09.flac:ecd8871fba7959fe09d8c02815e24789
gd1980-09-06s2t10.flac:d2e07267abec9b9ea84852f2fc06643d
gd1980-09-06s2t11.flac:6ec88e583e440971e5bc731c60ff1944
gd1980-09-06s2t12.flac:04ac0507814710ea98f98a896596216f
gd1980-09-06s2t13.flac:7fe82a120469b6f705135385790fd91f
gd1980-09-06s2t14.flac:975dec095be5f7e127576cebbf5a5df4
gd1980-09-06s2t15.flac:345ea3f1dfbdb4f35f9ba5818b6c1864
gd1980-09-06s2t16.flac:fb101fe9a91355b1cc57eaea6945cce1
gd1980-09-06s2t17.flac:b67c92dd5bfe653821eaf7e8b3a61f93
gd1980-09-06s2t18.flac:704eeae9156f861c74e0279f2419510c
flac-md5
433358cf355bad752bc64b7e5e69b173 *gd1980-09-06s1t01.flac
ae59a9c9451d2146c51dbb0f96fcea50 *gd1980-09-06s1t02.flac
968de9fcb15c18bcfbdbd30f5971420c *gd1980-09-06s1t03.flac
d04e581f982a35376624bece8eb779b3 *gd1980-09-06s1t04.flac
07ecfde01f4421bccadbbf7be7c8b040 *gd1980-09-06s1t05.flac
781a4c00c43ef0d6ae41652eb35bcb70 *gd1980-09-06s1t06.flac
b18dd4b0e205ae0e8e18d98cd50a3662 *gd1980-09-06s1t07.flac
c4e1811e6cc8cf87bb2d2a65835b8785 *gd1980-09-06s1t08.flac
3c9de6d47da81de453b7a9dc6b47d7bc *gd1980-09-06s1t09.flac
b3834936aced0f3098b29836290997fd *gd1980-09-06s1t10.flac
2b0d1c2b0e9f1cffc3b4a7a87222f787 *gd1980-09-06s1t11.flac
5ac3cb9a10aa5928c836f71074ae8ba7 *gd1980-09-06s1t12.flac
8e1f8fc3dd7c93b6a55721a7ccbe3584 *gd1980-09-06s1t13.flac
a3c52121b42691c21eac128764c5eb16 *gd1980-09-06s1t14.flac
cf451f647cc539108044708cbd0e958e *gd1980-09-06s1t15.flac
cd29f205885184d136b6e582610cc183 *gd1980-09-06s2t01.flac
43dc59ee44be60f39530d87a76fad373 *gd1980-09-06s2t02.flac
6b78ce7bc7ecdfbf3c5db1392f4b1be3 *gd1980-09-06s2t03.flac
36c900cf95a5a798f1f45313a97a9b0c *gd1980-09-06s2t04.flac
c885ba7967ea46b58f64f3bbd6851ee4 *gd1980-09-06s2t05.flac
9d778085f0ce8595b2c425e7832d4eb5 *gd1980-09-06s2t06.flac
8d579f1c648368fcea975153623667b6 *gd1980-09-06s2t07.flac
e97693e68f61a0a59a384a5232689a1d *gd1980-09-06s2t08.flac
0d7d740b31fe7f1b9f083029fe954c7d *gd1980-09-06s2t09.flac
6de4042a5779f8f162560e44f4a5a331 *gd1980-09-06s2t10.flac
c1fb7fc9e44bbea0b4c7bdeee90043a5 *gd1980-09-06s2t11.flac
0f3beae85428eae132a682846936e12f *gd1980-09-06s2t12.flac
bcf01b8d378faa1e8a8b6f4efd616435 *gd1980-09-06s2t13.flac
535dbc48dbf269b349ef21d86a97fb3e *gd1980-09-06s2t14.flac
4347fe434d3cc5250e8fac1348e4ca46 *gd1980-09-06s2t15.flac
80d40df1fe08151a1e68b94bb9d4fc40 *gd1980-09-06s2t16.flac
b04a418ee4340bbe0dde51e1b15ae7dd *gd1980-09-06s2t17.flac
ba8cd8f69ebd76fe08c9b31be2614d5b *gd1980-09-06s2t18.flac

Comments
Add Comment
Other Sources (comments)
Nak Dragon > Sony PCM r-500... (8) MAC > ? > CD > EAC > SHNv3;... (0) *Set 1 Only*... (2) Recording by Jim Wise: FOB... (1) Recording Info (Source 1):... (0) flac16; Recording... (0) flac24; Recording... (0) flac16; AUD: 2x... (2) flac16; (FOB)... (0) flac24; (FOB)... (0) flac16; FOB 3 mic... (0) flac16; source: aud... (0) flac24; source: aud... (0) flac24; Recording by... (0) flac16; Recording by... (0) flac24; Source Info:... (0) flac16/48kHz; Source... (0)
Date User Comment
02/02/2013 nfagdtrfb text file correction: taped by Tim Friend & Joe Morrone, thanks guys!
02/03/2013 Wharfrat73 Updated info file.