Browse Collections Artists Sources   Search Dates

Add Show    List Management    Help


Grateful Dead 11/26/80
The Sportatorium, Pembroke Pines, FL
Comments Add Comment    Source Collectors    Add to Collection    Add to Want List    History
Source # 101699 Other Sources
Entered by Matt Vernon
Checksums ffp , flac-md5
Disc Counts 2 / 3
Media Size
Date Circulated
Date Added
10/01/2009
10/01/2009
Source Summary flac16; Recording Info: Beyer M160 -> Cassette Master (Sony TC-D5M/Maxell UDXLII-C90/Dolby B); Transfer Info: Cassette Master (Nakamichi DR-1/Dolby B) -> Sound Devices 744T (24bit/96k) -> Adobe Audition v1.5 -> Samplitude Professional v10.21 -> FLAC/16; Recorded By Jim Wise; All Transfers and Mastering By Charlie Miller 
  Archive
Source Information - Download Text | Download Zip
Grateful Dead - November 26, 1980
Sportatorium - Pembroke Pines, FL

Recording Info:
Beyer M160 -> Cassette Master (Sony TC-D5M/Maxell UDXLII-C90/Dolby B)

Transfer Info:
Cassette Master (Nakamichi DR-1/Dolby B) -> Sound Devices 744T (24bit/96k) ->
Adobe Audition v1.5 -> Samplitude Professional v10.21 -> FLAC/16
(3 Discs Audio / 2 Discs FLAC)

All Transfers and Mastering By Charlie Miller
[email protected]
September 30, 2009

Notes:
-- Set 2 disc change is seamless
-- Tape flips in Eyes Of The world and Good Lovin'
-- Recorded By Jim Wise (mics were set up at soundboard)
-- Thanks to Jim Wise for lending me his master cassettes
-- Thanks to Joe B. Jones for his help with the pitch correction

Set 1:
d1t01 - Tuning
d1t02 - Alabama Getaway ->
d1t03 - Greatest Story Ever Told
d1t04 - Friend Of The Devil
d1t05 - On The Road Again
d1t06 - Jack-A-Roe
d1t07 - New Minglewood Blues
d1t08 - It Must Have Been The Roses
d1t09 - The Race Is On
d1t10 - Althea ->
d1t11 - Lost Sailor ->
d1t12 - Saint Of Circumstance ->
d1t13 - Deal

Set 2:
d2t01 - Cold Rain And Snow
d2t02 - Samson And Delilah
d2t03 - China Cat Sunflower ->
d2t04 - I Know You Rider ->
d2t05 - Estimated Prophet ->
d2t06 - Eyes Of The World ->
d2t07 - Drums ->
d3t01 - Space ->
d3t02 - Wharf Rat ->
d3t03 - Around And Around ->
d3t04 - Good Lovin'

Encore:
d3t05 - (I Can't Get No) Satisfaction


SHNTOOL OUTPUT:
    length     expanded size   cdr  WAVE problems filename
     0:47.08        8309660    ---   --   -----   gd80-11-26d1t01.wav
     4:31.13       47835020    ---   --   -----   gd80-11-26d1t02.wav
     4:47.33       50704460    ---   --   -----   gd80-11-26d1t03.wav
     9:38.21      102008636    ---   --   -----   gd80-11-26d1t04.wav
     4:10.50       44217644    ---   --   -----   gd80-11-26d1t05.wav
     5:24.46       57261836    ---   --   -----   gd80-11-26d1t06.wav
     8:55.55       94503404    ---   --   -----   gd80-11-26d1t07.wav
     7:30.09       79401212    ---   --   -----   gd80-11-26d1t08.wav
     4:58.29       52635452    ---   --   -----   gd80-11-26d1t09.wav
     7:53.42       83536028    ---   --   -----   gd80-11-26d1t10.wav
     6:46.59       71757212    ---   --   -----   gd80-11-26d1t11.wav
     6:02.11       63882716    ---   --   -----   gd80-11-26d1t12.wav
     7:40.17       81184028    ---   --   -----   gd80-11-26d1t13.wav
     7:56.27       84029948    ---   --   -----   gd80-11-26d2t01.wav
     8:36.17       91062428    ---   --   -----   gd80-11-26d2t02.wav
     6:16.64       66476972    ---   --   -----   gd80-11-26d2t03.wav
     6:13.29       65865452    ---   --   -----   gd80-11-26d2t04.wav
    10:42.35      113331164    ---   --   -----   gd80-11-26d2t05.wav
    15:47.65      167203724    ---   --   -----   gd80-11-26d2t06.wav
     9:36.34      101686412    ---   --   -----   gd80-11-26d2t07.wav
     6:39.01       70385996    ---   --   -----   gd80-11-26d3t01.wav
    10:20.70      109532684    ---   --   -----   gd80-11-26d3t02.wav
     4:11.34       44356412    ---   --   -----   gd80-11-26d3t03.wav
     8:49.23       93369740    ---   --   -----   gd80-11-26d3t04.wav
     4:28.60       47416364    ---   --   -----   gd80-11-26d3t05.wav
   178:45.27     1891954604 B                     (totals for 25 files)
Show Checksums
ffp
gd80-11-26d1t01.flac:5bed53a28bb87f2f27538ee3fc235eba
gd80-11-26d1t02.flac:dce41a09c1a1698f3ccae5e0f6c4383a
gd80-11-26d1t03.flac:78862f7b8dc808fb0f00938f122de4ea
gd80-11-26d1t04.flac:dc09ec0fa508d70e3bb210ed9ccf9755
gd80-11-26d1t05.flac:73170380455b26e3161faf20b79b3bd6
gd80-11-26d1t06.flac:e8f7ffb8206ab3f127258d81fcd14f8a
gd80-11-26d1t07.flac:d78b2153e8b2eb8e87764d5ab96e2283
gd80-11-26d1t08.flac:bdfdb82a184fe169dca27a59bf2f04a5
gd80-11-26d1t09.flac:432730e2f078c1853cae219d92cd1166
gd80-11-26d1t10.flac:6e5b8957783d1f1daf6c2c38d423717d
gd80-11-26d1t11.flac:b5a78046e5f036785c61868bb53f69a2
gd80-11-26d1t12.flac:55e3dbe3054d43f601d9eab8559d4228
gd80-11-26d1t13.flac:a6f1a5a1041b65a0bd47fc5dd8fbc097
gd80-11-26d2t01.flac:7e33c5eb32d7898ecc548bbe538c656c
gd80-11-26d2t02.flac:b3b30d9b532dfad71a589f6392f29ea2
gd80-11-26d2t03.flac:39b2d2bad0a04d16a3ba70f5070b27af
gd80-11-26d2t04.flac:5a6ed0d5af04c6d09df37586963b7c9c
gd80-11-26d2t05.flac:5bed37786aec5a5dd42c1ca613cad23f
gd80-11-26d2t06.flac:f27ab8ce8b1d74a9eff9084c3efeb203
gd80-11-26d2t07.flac:a689d1c989bfec378f22c6356edb4056
gd80-11-26d3t01.flac:80e46b4450ba55654ab7678077771ca3
gd80-11-26d3t02.flac:263ba20bb9c0220e8443ce96542c0353
gd80-11-26d3t03.flac:51e62a7aa436e83148f813b1226084df
gd80-11-26d3t04.flac:ec85ada6336e8c1f07e2a12e27b62780
gd80-11-26d3t05.flac:66417a3efe853a7911c6e9c96714ecb5
flac-md5
3095dccb684ab3e784af6e3b338f645e *gd80-11-26d1t01.flac
ba1c4c50d0c46e49912572204c90f18b *gd80-11-26d1t02.flac
249df54031b5c2e564146f5201aefdf4 *gd80-11-26d1t03.flac
9cb6aaf698036d3c591e8e5488e0abf4 *gd80-11-26d1t04.flac
41d18b7a09067457abbaf22a308ca940 *gd80-11-26d1t05.flac
d5e1100e642d9f7c0d81b5b0e5cee97b *gd80-11-26d1t06.flac
d35d83a1c1d6cf9dbef68c9f825dcd34 *gd80-11-26d1t07.flac
9a7a008dadc04fec984edfe3f125e4ea *gd80-11-26d1t08.flac
906fb6ba197c81914d05e8470b6bfb7c *gd80-11-26d1t09.flac
9dd126813d4f3cf66f2e0c2e151cab58 *gd80-11-26d1t10.flac
e4a224c26edb096c16f82c82973640d6 *gd80-11-26d1t11.flac
f9718d12dcab5bf313cb08efd506cac5 *gd80-11-26d1t12.flac
1a0f3b72d5ea71944f6b8334d8d7a502 *gd80-11-26d1t13.flac
b819bb004c1d22da4a97c156a1ee3407 *gd80-11-26d2t01.flac
b1e141653817a07591e49cd40097e94f *gd80-11-26d2t02.flac
ab6ee32289826b6db5568812e40d1ccc *gd80-11-26d2t03.flac
a3e4bf2e2459994481a9a829abd62272 *gd80-11-26d2t04.flac
af84dff3effc6308e5c4d91b260c8e0f *gd80-11-26d2t05.flac
cc325771eaec73cc867357e337e156c1 *gd80-11-26d2t06.flac
506fd8824696b398e176157b353ba011 *gd80-11-26d2t07.flac
651f0edf63e5f320e1a3efffcc6b27db *gd80-11-26d3t01.flac
935460a814cd64762ee9aae28b48498d *gd80-11-26d3t02.flac
bab1f6937ac338a11092c3cdf9b74bc9 *gd80-11-26d3t03.flac
8cac5eed1bf545d0ac6a204d409ba76f *gd80-11-26d3t04.flac
ffa0892689c54752dee2a44ca63733e9 *gd80-11-26d3t05.flac

Comments
Add Comment
Other Sources (comments)
Master Soundboard Cassette... (0) Recording by Jim Wise:... (0) Main source: Master... (0) flac16/48kHz;... (0) flac24; Cassette... (1) flac16; 2 Source... (0) flac16; Recording... (1) flac16; Recording... (0)
Date User Comment