Browse Collections Artists Sources   Search Dates

Add Show    List Management    Help


Grateful Dead 08/31/80
Capital Centre, Landover, MD
Comments Add Comment    Source Collectors    Add to Collection    Add to Want List    History
Source # 101718 Other Sources
Entered by dr.unclear
Checksums flac-md5 , ffp
Disc Counts 2 / 3
Media Size
Date Circulated
Date Added
10/02/2009
10/02/2009
Source Summary flac16; Nakamichi CM-300 (CP-1) x2 > Cassette Master (Marantz Superscope CD320/Maxell UDXLII) Cassette Master (Nakamichi DR-1) > Korg MR-1000 (1-bit/5.6MHz) > Audiogate (1-bit/5.6MHz > 16-bit/44.1KHz) > cdwav (edits); Recorded by Bob Morris 
  Archive
Source Information - Download Text | Download Zip
Grateful Dead - August 31, 1980
Capitol Center - Landover, Maryland

Nakamichi CM-300 (CP-1) x2 > Cassette Master
(Marantz Superscope CD320/Maxell UDXLII)

Cassette Master (Nakamichi DR-1) > Korg MR-1000 (1-bit/5.6MHz) >
Audiogate (1-bit/5.6MHz > 16-bit/44.1KHz) > cdwav (edits)

Disc One

Set 1:

01 Alabama Getaway ->
02 The Promised Land
03 Peggy-O
04 Mama Tried ->
05 Mexicali Blues
06 tuning
07 Althea ->
08 Little Red Rooster
09 tuning
10 Tennessee Jed
11 Far From Me
12 tuning
13 Lazy Lightnin' ->
14 Supplication
15 Deal

Set 2:

Disc Two

01 tuning
02 Greatest Story Ever Told ->
03 Uncle John's Band ->
04 Lost Sailor ->
05 St of Circumstance ->
06 Comes A Time ->
07 Truckin' ->
08 drums ->

Disc Three

01 space ->
02 The Other One ->
03 Stella Blue ->
04 I Need A Miracle ->
05 Good Lovin'

Encore
06 tuning
06 Brokedown Palace

Notes - Tape flip in drums at 1:07 -- spliced using Soundforge 9.0
Recorded by Bob Morris -- thanks to Sam for help & Dave B for his Naks
Transferred by Bob M 7/09


    length     expanded size   cdr  WAVE problems filename
     5:20.49       56563292    ---   --   ---xx   gd80-08-31audd1t01.flac
     4:28.40       47369324    ---   --   ---xx   gd80-08-31audd1t02.flac
     7:05.52       75092348    ---   --   ---xx   gd80-08-31audd1t03.flac
     2:48.03       29642300    ---   --   ---xx   gd80-08-31audd1t04.flac
     4:23.57       46527308    ---   --   ---xx   gd80-08-31audd1t05.flac
     0:45.27        8001548    ---   --   ---xx   gd80-08-31audd1t06.flac
     8:24.20       88952684    ---   --   ---xx   gd80-08-31audd1t07.flac
     7:54.09       83634812    ---   --   ---xx   gd80-08-31audd1t08.flac
     0:46.29        8182652    ---   --   ---xx   gd80-08-31audd1t09.flac
     9:54.45      104887484    ---   --   ---xx   gd80-08-31audd1t10.flac
     3:54.47       41388188    ---   --   ---xx   gd80-08-31audd1t11.flac
     1:07.48       11931740    ---   --   ---xx   gd80-08-31audd1t12.flac
     3:19.68       35263580    ---   --   ---xx   gd80-08-31audd1t13.flac
     7:01.27       74327948    ---   --   ---xx   gd80-08-31audd1t14.flac
     4:40.22       49443788    ---   --   ---xx   gd80-08-31audd1t15.flac
     1:10.09       12369212    ---   --   ---xx   gd80-08-31audd2t01.flac
     3:50.42       40670828    ---   --   ---xx   gd80-08-31audd2t02.flac
     8:44.55       92563004    ---   --   ---xx   gd80-08-31audd2t03.flac
     6:41.19       70781132    ---   --   ---xx   gd80-08-31audd2t04.flac
     6:53.59       72992012    ---   --   ---xx   gd80-08-31audd2t05.flac
     8:55.72       94543388    ---   --   ---xx   gd80-08-31audd2t06.flac
     8:47.19       93007532    ---   --   ---xx   gd80-08-31audd2t07.flac
    11:09.72      118180988    ---   --   ---xx   gd80-08-31audd2t08.flac
     4:35.61       48653516    ---   --   ---xx   gd80-08-31audd3t01.flac
     8:08.46       86191436    ---   --   ---xx   gd80-08-31audd3t02.flac
     9:08.40       96761324    ---   --   ---xx   gd80-08-31audd3t03.flac
     4:03.05       42877004    ---   --   ---xx   gd80-08-31audd3t04.flac
     8:00.35       84754364    ---   --   ---xx   gd80-08-31audd3t05.flac
     0:22.73        4052540    ---   --   ---xx   gd80-08-31audd3t06.flac
     6:57.69       73721132    ---   --   ---xx   gd80-08-31audd3t07.flac
   169:26.19     1793328408 B                     (totals for 30 files, 0.5649 overall compression ratio)

Show Checksums
flac-md5
1da5c5c5f9ca5f3a8b9545d726d720dc *gd80-08-31audd1t01.flac
ffcc647935bec77c13b412159e02b9af *gd80-08-31audd1t02.flac
d5ec3a279707026982e89787a2722acb *gd80-08-31audd1t03.flac
e71b8449567ee25dc4eb9b7d580426ee *gd80-08-31audd1t04.flac
6b88c1461f4ad5dbfd8aca66ab3d4a0d *gd80-08-31audd1t05.flac
a045359d103660e5fae6b6aed27d4f3a *gd80-08-31audd1t06.flac
9ee055411fefcb8e5c40a9533f72dbdb *gd80-08-31audd1t07.flac
a4471b5b385b080414ce12d5729158cb *gd80-08-31audd1t08.flac
e88519d543e1da6c212035af7aa13212 *gd80-08-31audd1t09.flac
365a81af0032daf289d0b2b0c704da04 *gd80-08-31audd1t10.flac
ced05a79ae3a81e088ff7dd7cc10ff5c *gd80-08-31audd1t11.flac
0e5d61f9f5a28a3a50a712e1b6dfdfd2 *gd80-08-31audd1t12.flac
9419d5a430bb6073fd51ee127dc6277a *gd80-08-31audd1t13.flac
35185c18b7b86d36bfc3ac7258aa1591 *gd80-08-31audd1t14.flac
29ebba76f29ffc5168d3b29e5f3141dd *gd80-08-31audd1t15.flac
3d873d70a988f2c4f9cf96cd675c0b66 *gd80-08-31audd2t01.flac
82034689cd63f1430ab5fd18c8f9c2b3 *gd80-08-31audd2t02.flac
b9e63a436766c0db8745c3eb44c2f1a9 *gd80-08-31audd2t03.flac
b0141f60fce1aec590a6de97f722d761 *gd80-08-31audd2t04.flac
75534edca76f148c36f2db5e09a25102 *gd80-08-31audd2t05.flac
e33f395ab603ee043e460d502c60c4e6 *gd80-08-31audd2t06.flac
8329201451856e6a18407c514434b1f0 *gd80-08-31audd2t07.flac
90cff74da164b995a0f93a2237c81e40 *gd80-08-31audd2t08.flac
81eda6681eccf6c0fec6e297ae5b7a5c *gd80-08-31audd3t01.flac
12c4690da66c04230eeca424ac380c64 *gd80-08-31audd3t02.flac
8b93a632d3614c5d52d93791aee3f54a *gd80-08-31audd3t03.flac
3b7cac8b825c4dfcc63423ae1fefc54a *gd80-08-31audd3t04.flac
77e5f601fd8e9e1d8e4ee7363016cec0 *gd80-08-31audd3t05.flac
9c0fd1ddfd776feb163574841ef5807c *gd80-08-31audd3t06.flac
6a5a4fde8cd80fca50bbd71216dd5b6a *gd80-08-31audd3t07.flac
ffp
gd80-08-31audd1t01.flac:177549e679fb55f78125e03e4255ed62
gd80-08-31audd1t02.flac:33d07246d6f034584d0694c472c6a9c0
gd80-08-31audd1t03.flac:d75e5dc5408626f8c2504ee1959d7193
gd80-08-31audd1t04.flac:47037ce0684c9071def5b349ff5a53b0
gd80-08-31audd1t05.flac:9a59ad7e57d812eb0ba066fec33e856c
gd80-08-31audd1t06.flac:88b73642059d54c5f81de9b6ade33527
gd80-08-31audd1t07.flac:30eab3cc0754120780700befb7475538
gd80-08-31audd1t08.flac:041465feb2461ee4c21cecd4ba521da2
gd80-08-31audd1t09.flac:2f8f207878632fa921b168699f3e7b1d
gd80-08-31audd1t10.flac:b7c815a920fcead55a4e68ee5271383d
gd80-08-31audd1t11.flac:798c9ac9ec593728808a85098ac52dc8
gd80-08-31audd1t12.flac:c730ffb3ee019c308b228bc672c45408
gd80-08-31audd1t13.flac:38a477aa7225afeadbced3ae12923ada
gd80-08-31audd1t14.flac:4a57bea2577bb6919a311745f551b9c1
gd80-08-31audd1t15.flac:814d29e07b1e17a1f654e4bcd8bfb9f6
gd80-08-31audd2t01.flac:7e2580a34eb766f6549ae93790d85649
gd80-08-31audd2t02.flac:ab8c10841876380278abf16758689159
gd80-08-31audd2t03.flac:0149cd4df6150198201fbc8d251ca042
gd80-08-31audd2t04.flac:eb676982bb5fc185e4874d51ec385a5d
gd80-08-31audd2t05.flac:0774c140d749560bfe8b31e2ec28d5d7
gd80-08-31audd2t06.flac:2a3e2f19c3fd3ccc111dc0946fb95893
gd80-08-31audd2t07.flac:178192015432977420be73bce8ebd723
gd80-08-31audd2t08.flac:c8b4e8bb13d5c4935c795244fd35fbf0
gd80-08-31audd3t01.flac:b7fe29e808de2657d74abb1f1ce9a21b
gd80-08-31audd3t02.flac:990e67e582f3baf6dd14fa3db08c65ea
gd80-08-31audd3t03.flac:b042f3dcfca19777f711f6e5e4c315f1
gd80-08-31audd3t04.flac:d9fc1ae90effe01cbde61aee1fd25294
gd80-08-31audd3t05.flac:fb68d2c83c11684f7ab27ebdd180fca9
gd80-08-31audd3t06.flac:4ff51d544de382db66620571d51a56b9
gd80-08-31audd3t07.flac:355be84fa46a73a33a7a607399f2b5cd

Comments
Add Comment
Other Sources (comments)
Recording by Jim Wise:... (3) Audience (unknown equipment... (2) AUD, SBD combo: Set 1:... (0) flac16; Recording by... (0) flac16; Recorded By... (0) flac16; Recording... (0) flac24; Source Info:... (0) flac16/48kHz; Source... (0)
Date User Comment