Browse Collections Artists Sources   Search Dates

Add Show    List Management    Help


Grateful Dead 09/04/80
Providence Civic Center, Providence, RI
Comments Add Comment    Source Collectors    Add to Collection    Add to Want List    History
Source # 101719 Other Sources
Entered by dr.unclear
Checksums ffp , flac-md5
Disc Counts 2 / 3
Media Size
Date Circulated
Date Added
10/02/2009
10/02/2009
Source Summary flac16; Nakamichi CM-300 (CP-1) x2 > Cassette Master (Marantz Superscope CD320/Maxell UDXLII) Cassette Master (Nakamichi DR-1) > Korg MR-1000 (1-bit/5.6MHz) > Audiogate (1-bit/5.6MHz > 16-bit/44.1KHz) > cdwav (edits); Recorded from floor Section 8, Row V, Seat 12 by Bob Morris 
  Archive
Source Information - Download Text | Download Zip
Grateful Dead - September 4, 1980
Providence Civic Center - Providence, Rhode Island

Nakamichi CM-300 (CP-1) x2 > Cassette Master
(Marantz Superscope CD320/Maxell UDXLII)

Cassette Master (Nakamichi DR-1) > Korg MR-1000 (1-bit/5.6MHz) >
Audiogate (1-bit/5.6MHz > 16-bit/44.1KHz) > cdwav (edits)

Disc One

Set 1:

01 tuning
02 "c'mon Brent get it together"
03 Feel Like A Stranger
04 Peggy-O
05 Cassidy
06 Dire Wolf
07 New Minglewood Blues
08 tuning
09 Althea
10 Looks Like Rain
11 tuning
12 Far From Me
13 China Cat Sunflower ->
14 I Know You Rider

Set 2:

Disc Two

01 tuning
02 Samson and Delilah
03 tuning
04 Ramble On Rose

Encore
05 tuning
06 U.S. Blues

Disc Three

01 tuning
02 Supplication jam ->
03 Estimated Prophet ->
04 Eyes of the World ->
05 drums ->
06 space ->
07 The Other One ->
08 Wharf Rat ->
09 Goin' Down The Road ->
10 Good Lovin'

Notes - Tape flip in drums at 7:25 -- spliced using Soundforge 9.0
Recorded from floor Section 8, Row V, Seat 12 by Bob Morris
Thanks to Sam for help and to Dave B for lending his Naks
Transferred by Bob M 7/09



    length     expanded size   cdr  WAVE problems filename
     1:15.40       13324124    ---   --   ---xx   gd80-09-04audd1t01.flac
     0:51.51        9116396    ---   --   ---xx   gd80-09-04audd1t02.flac
     7:19.26       77500796    ---   --   ---xx   gd80-09-04audd1t03.flac
     6:00.19       63548732    ---   --   ---xx   gd80-09-04audd1t04.flac
     5:04.14       53658572    ---   --   ---xx   gd80-09-04audd1t05.flac
     4:23.40       46487324    ---   --   ---xx   gd80-09-04audd1t06.flac
     6:58.47       73845788    ---   --   ---xx   gd80-09-04audd1t07.flac
     0:22.07        3897308    ---   --   ---xx   gd80-09-04audd1t08.flac
     8:26.28       89324300    ---   --   ---xx   gd80-09-04audd1t09.flac
     7:50.42       83006828    ---   --   ---xx   gd80-09-04audd1t10.flac
     0:34.51        6117596    ---   --   ---xx   gd80-09-04audd1t11.flac
     4:37.69       49025132    ---   --   ---xx   gd80-09-04audd1t12.flac
     5:37.30       59517404    ---   --   ---xx   gd80-09-04audd1t13.flac
     6:02.58       63993260    ---   --   ---xx   gd80-09-04audd1t14.flac
     0:38.47        6813788    ---   --   ---xx   gd80-09-04audd2t01.flac
     6:39.43       70484780    ---   --   ---xx   gd80-09-04audd2t02.flac
     0:17.55        3128204    ---   --   ---xx   gd80-09-04audd2t03.flac
     7:09.33       75753260    ---   --   ---xx   gd80-09-04audd2t04.flac
     0:48.38        8556620    ---   --   ---xx   gd80-09-04audd2t05.flac
     5:46.24       61090892    ---   --   ---xx   gd80-09-04audd2t06.flac
     0:57.39       10146572    ---   --   ---xx   gd80-09-04audd3t01.flac
     5:06.12       54006668    ---   --   ---xx   gd80-09-04audd3t02.flac
    10:07.47      107185388    ---   --   ---xx   gd80-09-04audd3t03.flac
     7:40.74       81318092    ---   --   ---xx   gd80-09-04audd3t04.flac
    11:13.58      118853660    ---   --   ---xx   gd80-09-04audd3t05.flac
     3:57.51       41926796    ---   --   ---xx   gd80-09-04audd3t06.flac
    10:08.57      107385308    ---   --   ---xx   gd80-09-04audd3t07.flac
     9:31.38      100813820    ---   --   ---xx   gd80-09-04audd3t08.flac
     6:35.40       69772124    ---   --   ---xx   gd80-09-04audd3t09.flac
     8:25.55       89211404    ---   --   ---xx   gd80-09-04audd3t10.flac
   160:30.33     1698810936 B                     (totals for 30 files, 0.6021 overall compression ratio)
Show Checksums
ffp
gd80-09-04audd1t01.flac:bc199244ea039117b86d593ba7299661
gd80-09-04audd1t02.flac:d6b0285aded91e63d10ecd28ea801223
gd80-09-04audd1t03.flac:9d9ad3088978a2926df80f676460a859
gd80-09-04audd1t04.flac:16a55b098889c1ccb4514dc008161fdf
gd80-09-04audd1t05.flac:f5600180ae1df6c033007aadc212f113
gd80-09-04audd1t06.flac:436932eecdd4ac0f42a0dfb0b4b0554a
gd80-09-04audd1t07.flac:4e2a8127a73961386b5bdb15f786388b
gd80-09-04audd1t08.flac:35a609e07005708ca124239d1a1cdfa3
gd80-09-04audd1t09.flac:18fe445d95afc45674d50f884a691297
gd80-09-04audd1t10.flac:7e54c63976ff0f8c58e2c377cf835c72
gd80-09-04audd1t11.flac:24e50861067fa009f7223e864bab58b9
gd80-09-04audd1t12.flac:6f284d6dfb333cef694b59b48d326f77
gd80-09-04audd1t13.flac:eb26ad12cb50cb383d6e3f144bf11af0
gd80-09-04audd1t14.flac:9ac1085eac529b52b59e357ff5ec5497
gd80-09-04audd2t01.flac:1727840428b85d0d4debeb5bb12238b9
gd80-09-04audd2t02.flac:9dfd277f5cc1eda443b5f0a48f951b72
gd80-09-04audd2t03.flac:fd484319373e5369e15b763684792084
gd80-09-04audd2t04.flac:542258042122db47e13fe66e63767771
gd80-09-04audd2t05.flac:0c362aba1dfd72a14b38f55d0bbe964d
gd80-09-04audd2t06.flac:de0f99335de86c390de59eaed28a5cc6
gd80-09-04audd3t01.flac:75ff43ad7c880576193e98afc64f22ab
gd80-09-04audd3t02.flac:fbbbf76e680f4cf4e3eb676464f2ab17
gd80-09-04audd3t03.flac:390eb0cb3781f5efbf096f7d4efb7741
gd80-09-04audd3t04.flac:866647873a30df9742cd37857edb2d09
gd80-09-04audd3t05.flac:36feee06d15bbe15f9be7926d3b320b2
gd80-09-04audd3t06.flac:d73e4ff5d837c095077f5ee371c13202
gd80-09-04audd3t07.flac:4a90dada6ac700ea8c0f896507ecdac6
gd80-09-04audd3t08.flac:181c5164ab65dbbe57c53bc89b621319
gd80-09-04audd3t09.flac:a330561d2a305aba82e7cd2964a1ec89
gd80-09-04audd3t10.flac:f848d24ff2a6b9a89c15d0d1c666d6ca
flac-md5
9ec4cb10855eb027b2199e51bc1ac354 *gd80-09-04audd1t01.flac
8cb4f73b23e150f9b3904dbf56918986 *gd80-09-04audd1t02.flac
5c56853e305159f66cf4455459ce5a92 *gd80-09-04audd1t03.flac
9de5da6ae18ba94aeef46d3c90f57b10 *gd80-09-04audd1t04.flac
fd147d0f4b2b9e824d68658e5c3bd140 *gd80-09-04audd1t05.flac
b1f441d929c0ff65fa9e79e6e869d880 *gd80-09-04audd1t06.flac
a5739ee161c126ca79d98eff210603d7 *gd80-09-04audd1t07.flac
fe95bffee2e89e8ee25673a3303be84a *gd80-09-04audd1t08.flac
83805ea50e750f11bdd043c146846007 *gd80-09-04audd1t09.flac
a8f3938aff9fdaad15026fab0ed919c1 *gd80-09-04audd1t10.flac
678e057347d266dff4bafad12dea057d *gd80-09-04audd1t11.flac
d74514ccd4661f95df4d904bef56a482 *gd80-09-04audd1t12.flac
5f77fd86b1bf59b0f3b8c42dd646432a *gd80-09-04audd1t13.flac
521895f70430aa4a7bb6875963d247e1 *gd80-09-04audd1t14.flac
8560c85ceb5a6798dcd195855c94b55a *gd80-09-04audd2t01.flac
a6d7cade004b84baed700fd16bcf781c *gd80-09-04audd2t02.flac
8051936b7ba3982ccfab313736097a84 *gd80-09-04audd2t03.flac
7802ab7cc490d87440b3396afb9221f8 *gd80-09-04audd2t04.flac
3b25e5d2bd74f96c5cba4f347308be35 *gd80-09-04audd2t05.flac
a77467d70d5ca987ac0d91ba87824050 *gd80-09-04audd2t06.flac
29b9ed9b32750b312796c01516a0cc3d *gd80-09-04audd3t01.flac
70ccd39688c9fb0d137535400a8843cf *gd80-09-04audd3t02.flac
c0c0dd80d2f6c4c3547547fca57d3057 *gd80-09-04audd3t03.flac
5037addc9086198ebc9425a2883f676b *gd80-09-04audd3t04.flac
3e434207f568f9931fce477bd4cb907b *gd80-09-04audd3t05.flac
85cd040e6dffc82d9ff11690a929666e *gd80-09-04audd3t06.flac
015216dcd6b45e480d1877e04f92ca54 *gd80-09-04audd3t07.flac
3a5a38dcce1b28b9f574255cdef0932f *gd80-09-04audd3t08.flac
0a188d16248d1728d3ebd72a9a26dfa3 *gd80-09-04audd3t09.flac
6c638fe997b8386c7a4a96a89560fc13 *gd80-09-04audd3t10.flac

Comments
Add Comment
Other Sources (comments)
AUD>MC>DAT>SF>CD;... (0) Set 1... (0) Set 2 Soundboard Cassette... (2) Recording by Jim Wise: FOB... (0) flac16; Recording... (0) flac16; Recording... (0) flac16; Matrix by... (0) flac24; FOB AUD: 2x... (2) flac16; FOB AUD: 2x... (2) flac24; Nakamichi... (0) flac24; Recording by... (1)
Date User Comment