Browse Collections Artists Sources   Search Dates

Add Show    List Management    Help


Grateful Dead 11/29/80
Alligator Alley Gymnasium, U of Florida, Gainesville, FL
Comments Add Comment    Source Collectors    Add to Collection    Add to Want List    History
Source # 101722 Other Sources
Entered by dr.unclear
Checksums ffp , flac-md5
Disc Counts 2 / 3
Media Size
Date Circulated
Date Added
10/02/2009
10/02/2009
Source Summary flac16; Recording Info: Beyer M160 -> Cassette Master (Sony TC-D5M/Maxell UDXLII-C90/Dolby B) Transfer Info: Cassette Master (Nakamichi DR-1/Dolby B) -> Sound Devices 744T (24bit/96k) -> Adobe Audition v1.5 -> Samplitude Professional v10.21 -> FLAC/16; Recorded By Jim Wise (mics were set up at soundboard); All Transfers and Mastering By Charlie Miller 
  Archive
Source Information - Download Text | Download Zip
Grateful Dead - November 29, 1980
Alligator Alley Gym - Gainesville, FL

Recording Info:
Beyer M160 -> Cassette Master (Sony TC-D5M/Maxell UDXLII-C90/Dolby B)

Transfer Info:
Cassette Master (Nakamichi DR-1/Dolby B) -> Sound Devices 744T (24bit/96k) ->
Adobe Audition v1.5 -> Samplitude Professional v10.21 -> FLAC/16
(3 Discs Audio / 2 Discs FLAC)

All Transfers and Mastering By Charlie Miller
[email protected]
October 1, 2009

Patch Info:
(FOB) Nakamichi 700 -> Cassette Master (shnid=90104) supplies:
He's Gone (12:12 - 12:26)
Drums (12:06 - 12:16)

Notes:
-- Set 2 is seamless
-- Recorded By Jim Wise (mics were set up at soundboard)
-- Thanks to Jim Wise for lending me his master cassettes
-- Thanks to Joe B. Jones for his help with the pitch correction

Set 1:
d1t01 - Tuning
d1t02 - Alabama Getaway ->
d1t03 - The Promised Land
d1t04 - Candyman
d1t05 - New Minglewood Blues
d1t06 - Row Jimmy
d1t07 - Mama Tried ->
d1t08 - Mexicali Blues
d1t09 - Althea ->
d1t10 - Lost Sailor ->
d1t11 - Saint Of Circumstance ->
d1t12 - Don't Ease Me In

Set 2:
d2t01 - Tuning
d2t02 - Shakedown Street ->
d2t03 - Franklin's Tower ->
d2t04 - Estimated Prophet ->
d2t05 - He's Gone ->
d2t06 - Truckin' ->
d2t07 - Drums ->
d3t01 - Space ->
d3t02 - The Other One ->
d3t03 - Stella Blue ->
d3t04 - Good Lovin'

Encore:
d3t05 - Casey Jones


SHNTOOL OUTPUT:
    length     expanded size   cdr  WAVE problems filename
     2:05.69       22212332    ---   --   -----   gd80-11-29d1t01.wav
     4:31.32       47879708    ---   --   -----   gd80-11-29d1t02.wav
     5:12.61       55180316    ---   --   -----   gd80-11-29d1t03.wav
     7:51.14       83117372    ---   --   -----   gd80-11-29d1t04.wav
     9:38.23      102013340    ---   --   -----   gd80-11-29d1t05.wav
    11:57.10      126502364    ---   --   -----   gd80-11-29d1t06.wav
     2:32.17       26852828    ---   --   -----   gd80-11-29d1t07.wav
     6:17.19       66547532    ---   --   -----   gd80-11-29d1t08.wav
     8:28.59       89750012    ---   --   -----   gd80-11-29d1t09.wav
     6:39.21       70433036    ---   --   -----   gd80-11-29d1t10.wav
     6:40.36       70644716    ---   --   -----   gd80-11-29d1t11.wav
     4:08.51       43867196    ---   --   -----   gd80-11-29d1t12.wav
     1:04.38       11379020    ---   --   -----   gd80-11-29d2t01.wav
    10:20.49      109483292    ---   --   -----   gd80-11-29d2t02.wav
     7:51.65       83237324    ---   --   -----   gd80-11-29d2t03.wav
    10:38.52      112665548    ---   --   -----   gd80-11-29d2t04.wav
    12:49.37      135738668    ---   --   -----   gd80-11-29d2t05.wav
     9:10.58       97156460    ---   --   -----   gd80-11-29d2t06.wav
    14:19.14      151560572    ---   --   -----   gd80-11-29d2t07.wav
     5:37.64       59597372    ---   --   -----   gd80-11-29d3t01.wav
     6:49.00       72147644    ---   --   -----   gd80-11-29d3t02.wav
    10:54.07      115382108    ---   --   -----   gd80-11-29d3t03.wav
     9:30.69      100710332    ---   --   -----   gd80-11-29d3t04.wav
     5:41.55       60281804    ---   --   -----   gd80-11-29d3t05.wav
   180:52.20     1914340896 B                     (totals for 24 files)
Show Checksums
ffp
gd80-11-29d1t01.flac:ba7a497d398dae390a1f5be92b263cc7
gd80-11-29d1t02.flac:5e44d5c2a30bf3ce61fef1958e18a8a2
gd80-11-29d1t03.flac:b002ba5630339eae1bea8bf98f926b09
gd80-11-29d1t04.flac:ec281d101acc77a9756ea73571f38268
gd80-11-29d1t05.flac:3617ded26db0c98a65b6fb9d9e1efbc3
gd80-11-29d1t06.flac:2fdd14daa737ab1087446941b2bfe1f0
gd80-11-29d1t07.flac:7c39621f6d0564fb586dd631b623fa11
gd80-11-29d1t08.flac:95a4b7b5c7226b2a775e64bbecd2455f
gd80-11-29d1t09.flac:47105e87ad3482141a4972157aa912db
gd80-11-29d1t10.flac:35031aa385d622d7f81112dc6ce105ad
gd80-11-29d1t11.flac:9b917c63ecff94a5391b58f11227749b
gd80-11-29d1t12.flac:ff1713bf0dfddf6d4566199b7754e56d
gd80-11-29d2t01.flac:0e13af81b642c7b76a79ff4e4f700ed2
gd80-11-29d2t02.flac:7470e517a46adab64e590fab1632a369
gd80-11-29d2t03.flac:98b89f5657808822fd1b96e2a0154cc4
gd80-11-29d2t04.flac:264bea0803e976ef8987a94bf06e4814
gd80-11-29d2t05.flac:fa7109131649170574def0bdf65fb8d9
gd80-11-29d2t06.flac:952c87dd7278247d38e6f06ac19f1caf
gd80-11-29d2t07.flac:eaba27e12a5cd7c602143e21a7899db3
gd80-11-29d3t01.flac:3c89332d5530f21e213da2d422173821
gd80-11-29d3t02.flac:a29d0ab005fdadaad4400a73ce375c6d
gd80-11-29d3t03.flac:1bc8f538562c943812b95d62084655e5
gd80-11-29d3t04.flac:b565dd8b8a7e7f493d2680d7562f29eb
gd80-11-29d3t05.flac:b2f7200762f3c57a1997b971d98ec4e7
flac-md5
414ed54fe8910b953f087965bb405852 *gd80-11-29d1t01.flac
0818012a57152cf2bfa46030591c529a *gd80-11-29d1t02.flac
12cf5bccf0d5e791597013275976003e *gd80-11-29d1t03.flac
a322dc52fd3561463216ea4dc98cfd19 *gd80-11-29d1t04.flac
f343ed1aa243f4697fdb0f6552fd14d8 *gd80-11-29d1t05.flac
24b2b08b1ee4b0f162c8aaa0136bed3d *gd80-11-29d1t06.flac
58a24ab21bb71aa3bda85e212a331537 *gd80-11-29d1t07.flac
2cbda1a16afbba396efc5cdf0a2693ec *gd80-11-29d1t08.flac
a2699d04abd719491ff536bf5877810a *gd80-11-29d1t09.flac
3ebdd9360e7151c0faaca6f2bf526e8b *gd80-11-29d1t10.flac
b11973feab085c23ef3054438280750c *gd80-11-29d1t11.flac
646e6ac7fe778e9fc29445310ec2d70d *gd80-11-29d1t12.flac
c5780aad5734ced04a96ae325bb5424e *gd80-11-29d2t01.flac
e21c831ba632292a8d096d1b65ffeedc *gd80-11-29d2t02.flac
afab280bf80711692052daa2b8cd591c *gd80-11-29d2t03.flac
7407fe9a0dd47ad1c187081f2984154c *gd80-11-29d2t04.flac
d58af044bc87ad67081c140cc237f73c *gd80-11-29d2t05.flac
81f9b676cfa20afae56e637c6e8ef769 *gd80-11-29d2t06.flac
1655111aae711ff8547a9648daa0969e *gd80-11-29d2t07.flac
a0753a199cd4d0468222c006c3694c66 *gd80-11-29d3t01.flac
1da40730e8736fec77836fa814ea9942 *gd80-11-29d3t02.flac
45c148efa4b9cce58dfcb43773f17de5 *gd80-11-29d3t03.flac
60c1e3702764616c4993ec09b8870528 *gd80-11-29d3t04.flac
fcd12e04fd59d51980f19114ed749eb9 *gd80-11-29d3t05.flac

Comments
Add Comment
Other Sources (comments)
no source info; via D. Barrick (2) Recording by Jim Wise: FOB... (3) flac16; Recording by... (1) flac16; Recording... (0) flac24; Recorded... (0) flac16/48kHz;... (0) flac24; Cassette... (0) flac24; AUD: Unknown... (0) flac16; AUD: Unknown... (0) flac24; Set 2... (0) flac16; Set 2... (0)
Date User Comment