Browse Collections Artists Sources   Search Dates

Add Show    List Management    Help


Jerry Garcia Band 02/24/80
Gym, S.U.N.Y., Stony Brook, NY
Comments Add Comment    Source Collectors    Add to Collection    Add to Want List    History
Source # 101725 Other Sources
Entered by Joe Jupille
Checksums md5
Disc Counts 1 / 2
Media Size
Date Circulated
Date Added
10/02/2009
10/02/2009
Source Summary JGB; flac1644; Bob Morris's (FOB) Unknown mics (2) > Cassette Master (Marantz Superscope CD320/Maxell UDXLI) > Nakamichi DR-1 > Korg MR-1000 (1-bit/5.6MHz) > Audiogate (1-bit/5.6MHz > 16-bit/44.1KHz) > cdwav (edits). 
Source Information - Download Text | Download Zip
Jerry Garcia Band - February 24, 1980
Gymnasium - SUNY, Stony Brook, New York

(FOB) Unknown mics (2) > Cassette Master
(Marantz Superscope CD320/Maxell UDXLI)

Cassette Master (Nakamichi DR-1) > Korg MR-1000 (1-bit/5.6MHz) >
Audiogate (1-bit/5.6MHz > 16-bit/44.1KHz) > cdwav (edits)

Disc One - Set 1:

01 tuning
02 Sugaree
03 Catfish John
04 tuning
05 How Sweet It Is
06 Sitting in Limbo
07 That's Alright Mama


Disc Two - Set 2:

01 tuning
02 That's What Love Will Make You Do
03 When I Paint My Masterpiece
04 Tore Up Over You
05 tuning
06 I'll Take A Melody
07 The Harder They Come

Encore
08 tuning
09 Midnight Moonlight

Notes - Recorded by Bob Morris - thanks to Sam for help
Transferred by Bob M 7/09

   length     expanded size   cdr  WAVE problems filename
    1:17.16       13620476    ---   --   ---xx   jgb80-02-24audd1t01.flac
   15:23.59      162956012    ---   --   ---xx   jgb80-02-24audd1t02.flac
    9:36.63      101754620    ---   --   ---xx   jgb80-02-24audd1t03.flac
    0:31.27        5531948    ---   --   ---xx   jgb80-02-24audd1t04.flac
    8:39.30       91622204    ---   --   ---xx   jgb80-02-24audd1t05.flac
   11:58.48      126768140    ---   --   ---xx   jgb80-02-24audd1t06.flac
    8:38.74       91549292    ---   --   ---xx   jgb80-02-24audd1t07.flac
    1:25.58       15130460    ---   --   ---xx   jgb80-02-24audd2t01.flac
    9:18.60       98572364    ---   --   ---xx   jgb80-02-24audd2t02.flac
    9:08.30       96737804    ---   --   ---xx   jgb80-02-24audd2t03.flac
    9:13.59       97688012    ---   --   ---xx   jgb80-02-24audd2t04.flac
    1:11.52       12646748    ---   --   ---xx   jgb80-02-24audd2t05.flac
   12:56.31      136959356    ---   --   ---xx   jgb80-02-24audd2t06.flac
   12:15.43      129755180    ---   --   ---xx   jgb80-02-24audd2t07.flac
    0:39.57        7013708    ---   --   ---xx   jgb80-02-24audd2t08.flac
    7:12.48       76317740    ---   --   ---xx   jgb80-02-24audd2t09.flac
  119:29.05     1264624064 B                     (totals for 16 files, 0.5864 overall compression ratio)
Show Checksums
md5
ffed8feae243ed192ac7d96164a13683 *jgb80-02-24audd1t01.flac
ac709a79eaa9d525f7d83fa0ccf793ad *jgb80-02-24audd1t02.flac
e7f240129290f9c5a0666149a2e730ae *jgb80-02-24audd1t03.flac
b8bac78c1a3d1d07cc8fa2fe04130029 *jgb80-02-24audd1t04.flac
8ce98545d42a3d697b87bf2f4e21f12e *jgb80-02-24audd1t05.flac
70e86f37d7aecdeba3f6332c406f98b9 *jgb80-02-24audd1t06.flac
f3c34860e8eaee36bd55dcac13d0a28f *jgb80-02-24audd1t07.flac
2c44bee096faa66b293f08b1e194f370 *jgb80-02-24audd2t01.flac
36f5ffe18e3fd88179b643e12344a1ec *jgb80-02-24audd2t02.flac
2197b900ad1e0ba66679777cfc78c2d8 *jgb80-02-24audd2t03.flac
38927310c67d106ae8f6b51a8f1297ac *jgb80-02-24audd2t04.flac
4ceaa46d333b48e57d476025a69bbe11 *jgb80-02-24audd2t05.flac
cd9f54c581b2b2a1a8e371718617b388 *jgb80-02-24audd2t06.flac
57465a324fd080a0a1c859a8dd7f15f2 *jgb80-02-24audd2t07.flac
e79d913f7d2375bcea73b4c67e5e350c *jgb80-02-24audd2t08.flac
8003367145959f5b6bf14a4d4aefe117 *jgb80-02-24audd2t09.flac

Comments
Add Comment
Other Sources (comments)
JGB; flac2496; Bob Morris's... (0)
Date User Comment