Browse Collections Artists Sources   Search Dates

Add Show    List Management    Help


Grateful Dead 10/22/80
Radio City Music Hall, New York, NY
Comments Add Comment    Source Collectors    Add to Collection    Add to Want List    History
Source # 101778 Other Sources
Entered by dr.unclear
Checksums ffp , flac-md5
Disc Counts 2 / 3
Media Size
Date Circulated
Date Added
10/05/2009
10/06/2009
Source Summary flac16; Nakamichi CM-300 (CP-1) x2 > Cassette Master (Marantz Superscope CD320/Maxell UDXLII-C90) Cassette Master (Nakamichi DR-1) > Korg MR-1000 (1-bit/5.6MHz) > Audiogate (1-bit/5.6MHz > 16-bit/44.1KHz) > cdwav (edits); Recorded from Orchestra Row SS, Seat 109 by Bob Morris 
  Archive
Source Information - Download Text | Download Zip
Grateful Dead - October 22, 1980
Radio City Music Hall - New York City

Nakamichi CM-300 (CP-1) x2 > Cassette Master
(Marantz Superscope CD320/Maxell UDXLII-C90)

Cassette Master (Nakamichi DR-1) > Korg MR-1000 (1-bit/5.6MHz) >
Audiogate (1-bit/5.6MHz > 16-bit/44.1KHz) > cdwav (edits)

Disc One - Set 1 (acoustic):

01 announcement / tuning
02 Dire Wolf
03 tuning
04 On The Road Again
05 tuning
06 I've Been All Around This World
07 Monkey & The Engineer
08 To Lay Me Down
09 Heaven Help The Fool
10 Bird Song ->
11 //Ripple

Disc Two - Set 2:

01 tuning
02 Alabama Getaway ->
03 Greatest Story Ever Told
04 "keep the aisles clear"
05 Friend of the Devil
06 Me & My Uncle ->
07 Big River
08 Peggy-O
09 New Minglewood Blues
10 China Cat Sunflower ->
11 I Know You Rider

Disc Three - Set 3:

01 Scarlet Begonias ->
02 Fire on the Mountain ->
03 Lost Sailor ->
04 St of Circumstance ->
05 drums ->
06 space ->
07 Not Fade Away ->
08 Goin' Down The Road ->
09 Good Lovin'

Encore
10 U.S. Blues

Notes - Tape flip between drums and space. Some crowd/tuning deleted
Recorded from Orchestra Row SS, Seat 109 by Bob Morris
Thanks to Sam for help and to Dave B for lending his Naks
Transferred by Bob M 7/09



    length     expanded size   cdr  WAVE problems filename
     2:35.67       27499628    ---   --   ---xx   gd80-10-22audd1t01.flac
     3:39.25       38690444    ---   --   ---xx   gd80-10-22audd1t02.flac
     0:31.41        5564876    ---   --   ---xx   gd80-10-22audd1t03.flac
     2:49.53       29936300    ---   --   ---xx   gd80-10-22audd1t04.flac
     0:34.27        6061148    ---   --   ---xx   gd80-10-22audd1t05.flac
     5:17.12       55947068    ---   --   ---xx   gd80-10-22audd1t06.flac
     2:52.32       30416108    ---   --   ---xx   gd80-10-22audd1t07.flac
     9:16.62       98224268    ---   --   ---xx   gd80-10-22audd1t08.flac
     6:26.41       68186876    ---   --   ---xx   gd80-10-22audd1t09.flac
     7:53.06       83451356    ---   --   ---xx   gd80-10-22audd1t10.flac
     4:16.68       45318380    ---   --   ---xx   gd80-10-22audd1t11.flac
     1:49.02       19232348    ---   --   ---xx   gd80-10-22audd2t01.flac
     4:32.69       48143132    ---   --   ---xx   gd80-10-22audd2t02.flac
     4:07.73       43742540    ---   --   ---xx   gd80-10-22audd2t03.flac
     0:27.29        4831052    ---   --   ---xx   gd80-10-22audd2t04.flac
    11:09.47      118122188    ---   --   ---xx   gd80-10-22audd2t05.flac
     3:05.07       32650508    ---   --   ---xx   gd80-10-22audd2t06.flac
     5:37.47       59557388    ---   --   ---xx   gd80-10-22audd2t07.flac
     7:15.39       76825772    ---   --   ---xx   gd80-10-22audd2t08.flac
     7:24.56       78453356    ---   --   ---xx   gd80-10-22audd2t09.flac
     6:29.37       68706668    ---   --   ---xx   gd80-10-22audd2t10.flac
     6:24.03       67744700    ---   --   ---xx   gd80-10-22audd2t11.flac
     8:19.15       88058924    ---   --   ---xx   gd80-10-22audd3t01.flac
     7:35.41       80358476    ---   --   ---xx   gd80-10-22audd3t02.flac
     6:42.53       71037500    ---   --   ---xx   gd80-10-22audd3t03.flac
     7:18.43       77364380    ---   --   ---xx   gd80-10-22audd3t04.flac
     3:30.17       37084028    ---   --   ---xx   gd80-10-22audd3t05.flac
     5:33.70       58905884    ---   --   ---xx   gd80-10-22audd3t06.flac
     5:20.61       56591516    ---   --   ---xx   gd80-10-22audd3t07.flac
     5:27.07       57699308    ---   --   ---xx   gd80-10-22audd3t08.flac
     5:54.62       62591468    ---   --   ---xx   gd80-10-22audd3t09.flac
     5:23.64       57127772    ---   --   ---xx   gd80-10-22audd3t10.flac
   165:44.01     1754125360 B                     (totals for 32 files, 0.6147 overall compression ratio)
Show Checksums
ffp
gd80-10-22audd1t01.flac:f1f19b0bfc8e330ede7bc88d70477f1a
gd80-10-22audd1t02.flac:874ddd69286175ad4bab663dac39d58e
gd80-10-22audd1t03.flac:48878f44ebbb04548f815b480d13e12f
gd80-10-22audd1t04.flac:288bafc4ffe917f74950a4c9c7c3242b
gd80-10-22audd1t05.flac:88519333229713c3cdf08b9a1981e060
gd80-10-22audd1t06.flac:9a23cf94b874394d2357cbff328b3bdd
gd80-10-22audd1t07.flac:5df8e8faaaa746bd655309d7ea36914b
gd80-10-22audd1t08.flac:48c376fa26378af4195c887c48e1f084
gd80-10-22audd1t09.flac:42a10696f0c1fc4943f34f1b2da3997c
gd80-10-22audd1t10.flac:3063d4b37e701a3ca2847823348ebdce
gd80-10-22audd1t11.flac:49b3918a7a225efa9131165cff009fdf
gd80-10-22audd2t01.flac:820c5e13f8ac8b0e4d9333881c6a9e36
gd80-10-22audd2t02.flac:13ef85407451a5a8e9748a220062bf2a
gd80-10-22audd2t03.flac:2cece1b1729b5e67787bddc5c52848fa
gd80-10-22audd2t04.flac:3ca0f5312082d3eb9be2c5eede43b309
gd80-10-22audd2t05.flac:5bde51661af378bf73d197c3937e41c2
gd80-10-22audd2t06.flac:f077900595bc2e0a9b286509522d76e4
gd80-10-22audd2t07.flac:5919796815ce6ad5153ef9e831a075e3
gd80-10-22audd2t08.flac:45cd683f75f58c3f8af77aebf4bfcfeb
gd80-10-22audd2t09.flac:26a0a070512bd90e8f384b62afb104b7
gd80-10-22audd2t10.flac:27b8415dc12a7a58039f201f133dcc45
gd80-10-22audd2t11.flac:064cb5c598117df34faa44f03d1adae0
gd80-10-22audd3t01.flac:d3b918e0cea70b7ea80d7f33850f98bf
gd80-10-22audd3t02.flac:0ee2cebcd7607507c38a6cecfb405f5a
gd80-10-22audd3t03.flac:4406c790befa3c5b1575943ad4678f8c
gd80-10-22audd3t04.flac:ef174df50d982f266f9c96b833d2074d
gd80-10-22audd3t05.flac:a2c4c4f0a80790239e224cf9a4518c4c
gd80-10-22audd3t06.flac:e1c3802a9e9b32cfd4d077fc3ccb32b3
gd80-10-22audd3t07.flac:3dba9a1205d81c526a2a14b4cc1c89b5
gd80-10-22audd3t08.flac:0d5cd4b1135dcb9add360b74c51efe2a
gd80-10-22audd3t09.flac:e1797406ad2a40ed8c956cbd8fbe0b20
gd80-10-22audd3t10.flac:0c8c51a2e6623222877e2d9540d3507a
flac-md5
276eecdca404a6f033f1c40e86bcf086 *gd80-10-22audd1t01.flac
0bba5cb586ae7a34e3177482b72b07f3 *gd80-10-22audd1t02.flac
2eff17e6476ac80cb8761a71ca6dd7ce *gd80-10-22audd1t03.flac
d7758d33096be98ceec5045ff58f8726 *gd80-10-22audd1t04.flac
f8d60fca3cd8cfc182ecf9ce92dbedc6 *gd80-10-22audd1t05.flac
1e9ae16b37845b4a41856fc070a38088 *gd80-10-22audd1t06.flac
1a0b3493b6aa33dd3463c89e710f00dc *gd80-10-22audd1t07.flac
5387ed493d5a8a9e6f233548c7690012 *gd80-10-22audd1t08.flac
33a84d99e360f9ef48986373f465ac3e *gd80-10-22audd1t09.flac
9e6cd4ef21c62f60704b42f21dc3c911 *gd80-10-22audd1t10.flac
293ec6afa37ec077e58f273c27877103 *gd80-10-22audd1t11.flac
817ed4421e88d49ffdc9d1cb27b935d9 *gd80-10-22audd2t01.flac
460e0b660bb4c7e8bccd2c055d80d3ea *gd80-10-22audd2t02.flac
74e44907e046c192cb6287d7f3f7450d *gd80-10-22audd2t03.flac
c7d4a1a025cd6cfe5ca46f8ec16ac6be *gd80-10-22audd2t04.flac
4b4fd117922844b5b08b2b13989bf4e8 *gd80-10-22audd2t05.flac
a49686fa8f3a534816fd00d8b562fc59 *gd80-10-22audd2t06.flac
c0757aba7ff686aebb1ea96511d6c13c *gd80-10-22audd2t07.flac
45f7f785f32ecf70745a5b1c5df6567e *gd80-10-22audd2t08.flac
2c913220baa728811b836b79a9aef036 *gd80-10-22audd2t09.flac
a3c624a1ad92743d9f72942f86d6e966 *gd80-10-22audd2t10.flac
cc256602329c6133a067ccd15092ec81 *gd80-10-22audd2t11.flac
257e517f4af681d3eb8bfefbdae780f5 *gd80-10-22audd3t01.flac
284c2c743aff1624d6c534a13cf7ffa3 *gd80-10-22audd3t02.flac
a6afdd8bda801e4625e4b76eaea7ec25 *gd80-10-22audd3t03.flac
b21222e38c29c61d1977b86ede682fe6 *gd80-10-22audd3t04.flac
4666f956da055f4de1d6601abd1ffb65 *gd80-10-22audd3t05.flac
e05836e9e6a92867815b8682b95e60d9 *gd80-10-22audd3t06.flac
c305a7c48f4c82f2a12faa8e670cff54 *gd80-10-22audd3t07.flac
5ceaa87507b8ee42b56522e602de35ad *gd80-10-22audd3t08.flac
583e9650c3c9a1505fb737548426dc1d *gd80-10-22audd3t09.flac
551716cb4aefcc4e7d23ed26e4326b95 *gd80-10-22audd3t10.flac

Comments
Add Comment
Other Sources (comments)
AUD(Sony... (0) flac16; Recording... (0) flac16; Lodge Dead... (0)
Date User Comment