Browse Collections Artists Sources   Search Dates

Add Show    List Management    Help


Garcia 02/23/80
The Tower Theatre, Upper Darby, PA
Comments Add Comment    Source Collectors    Add to Collection    Add to Want List    History
Source # 101808 Other Sources
Entered by Joe Jupille
Checksums md5 , ffp
Disc Counts 0 / 0
Media Size
Date Circulated
Date Added
10/06/2009
10/08/2009
Source Summary early and late shows; Unknown mics (2) > Cassette Master (Marantz Superscope CD320/Maxell UDXLII). Cassette Master (Nakamichi DR-1) > Korg MR-1000 (1-bit/5.6MHz) > Audiogate (1-bit/5.6MHz > 16-bit/44.1KHz) > cdwav (edits). Taped and transferred by Bob Morris.  
Source Information - Download Text | Download Zip
Jerry Garcia Band - February 23, 1980 - Early and Late Shows
Tower Theater - Upper Darby, Pennsylvania

Unknown mics (2) > Cassette Master
(Marantz Superscope CD320/Maxell UDXLII)

Cassette Master (Nakamichi DR-1) > Korg MR-1000 (1-bit/5.6MHz) >
Audiogate (1-bit/5.6MHz > 16-bit/44.1KHz) > cdwav (edits)

Early Show - Disc One

01 tuning
02 Catfish John
03 How Sweet It Is
04 /Friend of the Devil
05 That's What Love Will Make You Do
06 Positively 4th Street
07 That's Alright Mama

Encore
08 Deal

Late Show - Disc Two

01 tuning
02 Sugaree
03 tuning
04 The Harder They Come
05 Russian Lullaby
06 Tore Up Over You
07 Midnight Moonlight

Encore
08 When I Paint My Masterpiece

Notes - Early: Orchestra Row Q, Seat 21; Late: Balcony Row Q, Seat 19
Low levels in FOTD corrected during transfer
Recorded by Bob Morris - thanks to Sam for help
Transferred by Bob M 7/09

   length     expanded size   cdr  WAVE problems filename
    0:37.44        6630332    ---   --   ---xx   jgb80-02-23audd1t01.flac
   10:57.61      116038316    ---   --   ---xx   jgb80-02-23audd1t02.flac
    9:35.63      101578220    ---   --   ---xx   jgb80-02-23audd1t03.flac
   10:09.33      107505260    ---   --   ---xx   jgb80-02-23audd1t04.flac
   10:08.43      107352380    ---   --   ---xx   jgb80-02-23audd1t05.flac
   12:46.43      135223580    ---   --   ---xx   jgb80-02-23audd1t06.flac
    9:12.74       97546892    ---   --   ---xx   jgb80-02-23audd1t07.flac
    6:38.10       70230764    ---   --   ---xx   jgb80-02-23audd1t08.flac
    0:32.07        5661308    ---   --   ---xx   jgb80-02-23audd2t01.flac
   16:01.10      169543964    ---   --   ---xx   jgb80-02-23audd2t02.flac
    0:27.66        4918076    ---   --   ---xx   jgb80-02-23audd2t03.flac
   11:45.32      124437308    ---   --   ---xx   jgb80-02-23audd2t04.flac
   15:07.72      160164188    ---   --   ---xx   jgb80-02-23audd2t05.flac
    7:53.32       83512508    ---   --   ---xx   jgb80-02-23audd2t06.flac
    7:43.69       81835532    ---   --   ---xx   jgb80-02-23audd2t07.flac
    9:52.14      104461772    ---   --   ---xx   jgb80-02-23audd2t08.flac
  139:30.73     1476640400 B                     (totals for 16 files, 0.5846 overall compression ratio)
Show Checksums
md5
8251cd6213724be97b7b735827e54090 *jgb80-02-23audd1t01.flac
03d1f11477b2cb62d6dcd94a850792eb *jgb80-02-23audd1t02.flac
f9587e194cdd3d15605968bd1b03ec75 *jgb80-02-23audd1t03.flac
a46bef46c19d3a55eb710fbdd0789720 *jgb80-02-23audd1t04.flac
d14563681364071359f98bc24f1790b0 *jgb80-02-23audd1t05.flac
30527d51505625835c59d9c5b3813e08 *jgb80-02-23audd1t06.flac
37d6ee57ade474b626d598886800f32c *jgb80-02-23audd1t07.flac
d710e416065a1000d20c4ecf1997f73a *jgb80-02-23audd1t08.flac
bf00fd1b1afea2fe336b7cc7e2160d4b *jgb80-02-23audd2t01.flac
b7b9cd80ceb8070efb4116525d490cdc *jgb80-02-23audd2t02.flac
a0962ea42da97400f666c5581edc121a *jgb80-02-23audd2t03.flac
0c986bf78ceebc6d3e4a6837474d325b *jgb80-02-23audd2t04.flac
841e251dd14bd637f5fd82c4a9768055 *jgb80-02-23audd2t05.flac
a30c2a7948c8e5dc799f6800b6b87132 *jgb80-02-23audd2t06.flac
1966fda6addb04ca7c7bd846e0b90a61 *jgb80-02-23audd2t07.flac
cd5eddc6018af103e73cf5bae50d02bd *jgb80-02-23audd2t08.flac
ffp
jgb80-02-23audd1t01.flac:e91abc9ae973fbd336f01a132008b5bf
jgb80-02-23audd1t02.flac:f88f7bb01db48beeb77f73e78c998675
jgb80-02-23audd1t03.flac:42898075fc597b09a9ce61fcc37744d9
jgb80-02-23audd1t04.flac:5d6f398628ada2f3b7b4364b005436e0
jgb80-02-23audd1t05.flac:336ee32142ba23539fbf6024a6772f25
jgb80-02-23audd1t06.flac:28e3816a32f030dfcf9674281e32bf4c
jgb80-02-23audd1t07.flac:94cafd31e37193d9f8279b9cf6c78aa9
jgb80-02-23audd1t08.flac:e24862b1afcc69127b0eb065ff9f2d5e
jgb80-02-23audd2t01.flac:954798db8dbe6bace95a4cfb2625e30d
jgb80-02-23audd2t02.flac:a650268e8a5964da44ca51d24817c2b9
jgb80-02-23audd2t03.flac:8fcfedc89278567dfe000dc8ea595586
jgb80-02-23audd2t04.flac:6c721978a5f44940df3235c41fe36dea
jgb80-02-23audd2t05.flac:68b7cdf831b1f8aa6d90284c023599de
jgb80-02-23audd2t06.flac:b35b8661f2bceb0c30acf4cade719832
jgb80-02-23audd2t07.flac:ae38042f84d478914c2b28c3cd0db417
jgb80-02-23audd2t08.flac:edc783d8e832aa989bf45e6c6729310f

Comments
Add Comment
Other Sources (comments)
Jerry Garcia Band: Early &... (0) JGB, Late Show: Charlie... (0) JGB, early show: aud > old... (0) JGB; flac1644; early and... (0) JGB, flac1644, Late Show;... (0)
Date User Comment