Browse Collections Artists Sources   Search Dates

Add Show    List Management    Help


Grateful Dead 05/12/81
Veterans' Memorial Coliseum, New Haven, CT
Comments Add Comment    Source Collectors    Add to Collection    Add to Want List    History
Source # 101924 Other Sources
Entered by Gary Field
Checksums flac-md5 , ffp
Disc Counts 0 / 0
Media Size
Date Circulated
Date Added
10/10/2009
10/10/2009
Source Summary flac24; AUD: 3x Nakamichi CM-300 w/CP-1 cardioids > Nakamichi 550 > Maxell XL-II 90's. Mics handheld, recorded from left side (stage right) first-level riser, about half way back. Taped by Tim Friend & Joe Morrone. Transfer: MAC > Nakamichi DR-2 > Edirol FA-66 > Wavelab 2448 > CD-Wave > TLH > FLAC 2448. Transfer by Andrew F. 10/2009 
  Archive
Source Information - Download Text | Download Zip
GRATEFUL DEAD
Veteran's Memorial Coliseum
New Haven CT
05-12-1981

24Bit/48kHz file-set

s1t01 Alabama Getaway >
s1t02 Greatest Story Ever Told
s1t03 Peggy-O >
s1t04 Cassidy
s1t05 It Must Have Been the Roses
s1t06 Me & My Uncle >
s1t07 Big River
s1t08 Althea >
s1t09 Little Red Rooster
s1t10 China Cat Sunflower >
s1t11 I Know You Rider

s2t01 crowd & tuning
s2t02 Shakedown Street >
s2t03 Looks Like Rain
s2t04 crowd & tuning
s2t05 Ship of Fools >
s2t06 Estimated Prophet >
s2t07 He's Gone (Dedicated to Bob Marley) >
s2t08 Jam >
s2t09 Drum//s >
s2t10 Space >
s2t11 The Other One >
s2t12 Wharf Rat >
s2t13 Sugar Magnolia
s2t14 Encore: Don't Ease Me In

AUD: 3x Nakamichi CM-300 w/CP-1 cardioids > Nakamichi 550 >
Maxell XL-II 90's. Mics handheld, recorded from left side
(stage right) first-level riser, about half way back. Taped
by Tim Friend & Joe Morrone.

Transfer: MAC > Nakamichi DR-2 > Edirol FA-66 > Wavelab 2448 >
CD-Wave > TLH > FLAC 2448. Transfer by Andrew F. 10/2009

Notes: Twenty-second patch from ID-99007, Estimated 11:07 to
He's Gone 0:06. No patch available for the tape-flip in Drums,
it's mended together at track time 09:02.038.

    length     expanded size    cdr  WAVE problems  fmt   ratio  filename
     4:55.853      85205804 B   cxx   --   ---xx   flac  0.7157  gd1981-05-12s1t01.flac
     4:19.853      74837804 B   cxx   --   ---xx   flac  0.7122  gd1981-05-12s1t02.flac
     6:44.907     116613164 B   cxx   --   ---xx   flac  0.6823  gd1981-05-12s1t03.flac
     5:38.947      97616684 B   cxx   --   ---xx   flac  0.7059  gd1981-05-12s1t04.flac
     6:54.213     119293484 B   cxx   --   ---xx   flac  0.6918  gd1981-05-12s1t05.flac
     3:00.987      52124204 B   cxx   --   ---xx   flac  0.7184  gd1981-05-12s1t06.flac
     5:57.875     103068008 B   cxx   --   ---xx   flac  0.7156  gd1981-05-12s1t07.flac
     8:14.640     142456364 B   cxx   --   ---xx   flac  0.7049  gd1981-05-12s1t08.flac
     9:46.467     168902444 B   cxx   --   ---xx   flac  0.7099  gd1981-05-12s1t09.flac
     5:45.347      99459884 B   cxx   --   ---xx   flac  0.7161  gd1981-05-12s1t10.flac
     6:10.309     106649138 B   cxx   --   ---xx   flac  0.7246  gd1981-05-12s1t11.flac
     1:09.453      20002604 B   cxx   --   ---xx   flac  0.6560  gd1981-05-12s2t01.flac
    12:06.507     209233964 B   cxx   --   ---xx   flac  0.7236  gd1981-05-12s2t02.flac
     8:54.000     153792044 B   cxx   --   ---xx   flac  0.7002  gd1981-05-12s2t03.flac
     1:07.840      19537964 B   cxx   --   ---xx   flac  0.6511  gd1981-05-12s2t04.flac
     7:39.187     132245804 B   cxx   --   ---xx   flac  0.7013  gd1981-05-12s2t05.flac
    11:21.827     196366124 B   cxx   --   ---xx   flac  0.7170  gd1981-05-12s2t06.flac
    11:46.573     203492930 B   cxx   --   ---xx   flac  0.6932  gd1981-05-12s2t07.flac
     6:03.133     104582444 B   cxx   --   ---xx   flac  0.7210  gd1981-05-12s2t08.flac
    10:01.213     173149484 B   cxx   --   ---xx   flac  0.6926  gd1981-05-12s2t09.flac
     4:08.744      71638280 B   cxx   --   ---xx   flac  0.6577  gd1981-05-12s2t10.flac
     6:37.533     114489644 B   cxx   --   ---xx   flac  0.7172  gd1981-05-12s2t11.flac
     9:48.573     169509164 B   cxx   --   ---xx   flac  0.7037  gd1981-05-12s2t12.flac
     8:30.493     147022124 B   cxx   --   ---xx   flac  0.7340  gd1981-05-12s2t13.flac
     4:06.607      71022770 B   cxx   --   ---xx   flac  0.7133  gd1981-05-12s2t14.flac
   170:51.081    2952312326 B                            0.7070  (25 files)

No errors occured.

Show Checksums
flac-md5
2982b890b962d5426598af7da99d40e7 *gd1981-05-12s1t01.flac
344a0a7ae2dea370a8e2bebc30d96b23 *gd1981-05-12s1t02.flac
7b59300206bff68258d3faf2d75f8b19 *gd1981-05-12s1t03.flac
c8b4ac3ac57560eaf2fbfc41e87ba55b *gd1981-05-12s1t04.flac
6ffe2702d158eaaa56f96fe3022010ee *gd1981-05-12s1t05.flac
db639a72c1b24a5f3f372e8f3227333f *gd1981-05-12s1t06.flac
00cea24c441dd10026dfff4a523e78c1 *gd1981-05-12s1t07.flac
c414d9c9fe19f19522b986f404a7bc85 *gd1981-05-12s1t08.flac
df8a99e5087263a1313e32650efba916 *gd1981-05-12s1t09.flac
20d0f7d60da890b793cb09a7fe2ca937 *gd1981-05-12s1t10.flac
5e1d21f33de3633ba9c56d2b4cdff7a4 *gd1981-05-12s1t11.flac
57af7348c47ec54cba6cabaef3f2662a *gd1981-05-12s2t01.flac
fe0cf60f55bd5f9098c309d61a8a5608 *gd1981-05-12s2t02.flac
981bff00143a90f22715c2de1d975615 *gd1981-05-12s2t03.flac
22b1b1a080343705c735629d165a643a *gd1981-05-12s2t04.flac
52d504fdb99f0ec778f58ea4f5055b0b *gd1981-05-12s2t05.flac
33298441353bbcceb761da82a0979dc7 *gd1981-05-12s2t06.flac
058803439c80cf5a48336115cbdee5d2 *gd1981-05-12s2t07.flac
6613fb784882a1a47e098771a8970cbb *gd1981-05-12s2t08.flac
18b94206a9b55c2c7c1858bc650c8414 *gd1981-05-12s2t09.flac
1455714f6bcef365d77f727527f3658a *gd1981-05-12s2t10.flac
ea65dabb3264a4b817684a1cca3729e2 *gd1981-05-12s2t11.flac
28f23815b2c9e22008dacf929ca9e492 *gd1981-05-12s2t12.flac
3e96f5434dd5a6ac3ef66c4b33a5ef0d *gd1981-05-12s2t13.flac
2b8670515b12fd57ece878546fa23d1b *gd1981-05-12s2t14.flac
ffp
gd1981-05-12s1t01.flac:969b2559a718bd7b5a470429a9bd19ee
gd1981-05-12s1t02.flac:a32a17f18a72534353c06a1da11cc94a
gd1981-05-12s1t03.flac:a9aa8cde83cc1a09f24a4d4bccc04525
gd1981-05-12s1t04.flac:aff517b117242041107577c3b2d5194f
gd1981-05-12s1t05.flac:80154be4768dcba950e2ea51241c0e48
gd1981-05-12s1t06.flac:a6af2d2166705a418e9a67e7852e4c57
gd1981-05-12s1t07.flac:bc52aee923185db6932634f6a34189d4
gd1981-05-12s1t08.flac:231b36c424d0cd098b726c376c75aa2e
gd1981-05-12s1t09.flac:25455fc1468896c4ab724907e06a90fd
gd1981-05-12s1t10.flac:5a3bf6f0b69f16fe98064f84953a45c4
gd1981-05-12s1t11.flac:def7053453e1e478e267e4a0f1591f08
gd1981-05-12s2t01.flac:c095c63611c1942e2272dca0ccfdba72
gd1981-05-12s2t02.flac:d58543bf9a7e362d98b848cec7a64aac
gd1981-05-12s2t03.flac:de623324081ebacadcf512d9c64d3037
gd1981-05-12s2t04.flac:622dcb759128abc8f65e469db508d405
gd1981-05-12s2t05.flac:02766e2ab26bd427018bcb6157efd25c
gd1981-05-12s2t06.flac:7436fe2a4ecdbc8fa54d480544c14338
gd1981-05-12s2t07.flac:8fb504aad761b721e0d59ff7db144e0b
gd1981-05-12s2t08.flac:e2300668c5aede091a2f364269c2e29a
gd1981-05-12s2t09.flac:8c808873c3b8c9c4e02a5da4d586c17c
gd1981-05-12s2t10.flac:486b64981071987b453e9fdb32b0834b
gd1981-05-12s2t11.flac:ccb7bbdffe468ccb30e0eadbeed403d2
gd1981-05-12s2t12.flac:8a7713ed9d5dddf81399196e9da5604b
gd1981-05-12s2t13.flac:332499ec0fe3011a69cf43044a40b5e7
gd1981-05-12s2t14.flac:e4a442a9a1f2c0d3b550322de7445aa5

Comments
Add Comment
Other Sources (comments)
SBD> Master Cassette>... (9) essentially same as (3) flac16; Set 1... (0) flac16; Matrix by... (1) flac16; AUD: 3x... (1) flac16; Updated... (1) flac16; Recording... (0) flac16; source: aud... (0) flac24; source: aud... (0) flac16; Source Info:... (0) flac24; Source Info:... (0)
Date User Comment
02/08/2013 nfagdtrfb text file correction: taped by Tim Friend & Joe Morrone, thanks guys!