Browse Collections Artists Sources   Search Dates

Add Show    List Management    Help


Grateful Dead 05/12/81
Veterans' Memorial Coliseum, New Haven, CT
Comments Add Comment    Source Collectors    Add to Collection    Add to Want List    History
Source # 101925 Other Sources
Entered by Gary Field
Checksums ffp , flac-md5
Disc Counts 2 / 3
Media Size
Date Circulated
Date Added
10/10/2009
10/10/2009
Source Summary flac16; AUD: 3x Nakamichi CM-300 w/CP-1 cardioids > Nakamichi 550 > Maxell XL-II 90's. Mics handheld, recorded from left side (stage right) first-level riser, about half way back. Taped by Tim Friend & Joe Morrone. Transfer: MAC > Nakamichi DR-2 > Edirol FA-66 > Wavelab 2448 > CD-Wave > R8Brain > TLH > FLAC 1644. Transfer by Andrew F. 10/2009 
  Archive
Source Information - Download Text | Download Zip
GRATEFUL DEAD
Veteran's Memorial Coliseum
New Haven CT
05-12-1981

16Bit/44.1kHz file-set

s1t01 Alabama Getaway >
s1t02 Greatest Story Ever Told
s1t03 Peggy-O >
s1t04 Cassidy
s1t05 It Must Have Been the Roses
s1t06 Me & My Uncle >
s1t07 Big River
s1t08 Althea >
s1t09 Little Red Rooster
s1t10 China Cat Sunflower >
s1t11 I Know You Rider

s2t01 crowd & tuning
s2t02 Shakedown Street >
s2t03 Looks Like Rain
s2t04 crowd & tuning
s2t05 Ship of Fools >
s2t06 Estimated Prophet >
s2t07 He's Gone (Dedicated to Bob Marley) >
s2t08 Jam >
s2t09 Drum//s >
s2t10 Space >
s2t11 The Other One >
s2t12 Wharf Rat >
s2t13 Sugar Magnolia
s2t14 Encore: Don't Ease Me In

AUD: 3x Nakamichi CM-300 w/CP-1 cardioids > Nakamichi 550 >
Maxell XL-II 90's. Mics handheld, recorded from left side
(stage right) first-level riser, about half way back. Taped
by Tim Friend & Joe Morrone.

Transfer: MAC > Nakamichi DR-2 > Edirol FA-66 > Wavelab 2448 >
CD-Wave > R8Brain > TLH > FLAC 1644. Transfer by Andrew F.
10/2009

Notes: Twenty-second patch from ID-99007, Estimated 11:07 to
He's Gone 0:06. No patch available for the tape-flip in Drums,
it's mended together at track time 09:02.038.

CDR burning options: D1 s1t01 > s1t11, D2 s2t01 > s2t08, D3
s2t09 > s2t14. Alternate: s2t04 > s2t13 fits one disc (77:05).

    length     expanded size    cdr  WAVE problems  fmt   ratio  filename
     4:55.64       52188572 B   ---   --   ---xx   flac  0.5976  gd1981-05-12s1t01.flac
     4:19.64       45838172 B   ---   --   ---xx   flac  0.5903  gd1981-05-12s1t02.flac
     6:44.68       71425580 B   ---   --   ---xx   flac  0.5428  gd1981-05-12s1t03.flac
     5:38.71       59790236 B   ---   --   ---xx   flac  0.5804  gd1981-05-12s1t04.flac
     6:54.16       73067276 B   ---   --   ---xx   flac  0.5573  gd1981-05-12s1t05.flac
     3:00.74       31926092 B   ---   --   ---xx   flac  0.6006  gd1981-05-12s1t06.flac
     5:57.65       63127724 B   ---   --   ---xx   flac  0.5953  gd1981-05-12s1t07.flac
     8:14.48       87254540 B   ---   --   ---xx   flac  0.5786  gd1981-05-12s1t08.flac
     9:46.35      103452764 B   ---   --   ---xx   flac  0.5868  gd1981-05-12s1t09.flac
     5:45.26       60919196 B   ---   --   ---xx   flac  0.5963  gd1981-05-12s1t10.flac
     6:10.23       65322140 B   ---   --   ---xx   flac  0.6106  gd1981-05-12s1t11.flac
     1:09.34       12251612 B   ---   --   ---xx   flac  0.5047  gd1981-05-12s2t01.flac
    12:06.38      128155820 B   ---   --   ---xx   flac  0.6089  gd1981-05-12s2t02.flac
     8:54.00       94197644 B   ---   --   ---xx   flac  0.5710  gd1981-05-12s2t03.flac
     1:07.63       11967020 B   ---   --   ---xx   flac  0.4922  gd1981-05-12s2t04.flac
     7:39.14       81000572 B   ---   --   ---xx   flac  0.5722  gd1981-05-12s2t05.flac
    11:21.62      120274268 B   ---   --   ---xx   flac  0.5974  gd1981-05-12s2t06.flac
    11:46.43      124639580 B   ---   --   ---xx   flac  0.5595  gd1981-05-12s2t07.flac
     6:03.10       64056764 B   ---   --   ---xx   flac  0.6046  gd1981-05-12s2t08.flac
    10:01.16      106054076 B   ---   --   ---xx   flac  0.5579  gd1981-05-12s2t09.flac
     4:08.56       43878956 B   ---   --   ---xx   flac  0.5026  gd1981-05-12s2t10.flac
     6:37.40       70124924 B   ---   --   ---xx   flac  0.5981  gd1981-05-12s2t11.flac
     9:48.43      103824380 B   ---   --   ---xx   flac  0.5767  gd1981-05-12s2t12.flac
     8:30.37       90051068 B   ---   --   ---xx   flac  0.6256  gd1981-05-12s2t13.flac
     4:06.47       43504988 B   ---   --   ---xx   flac  0.5932  gd1981-05-12s2t14.flac
   170:51.07     1808293964 B                            0.5819  (25 files)

No errors occured.

Show Checksums
ffp
gd1981-05-12s1t01.flac:243ab5e84b17f9e20ab2af8073fb83d9
gd1981-05-12s1t02.flac:fbac57637bc809aa07438a9dbf9c1321
gd1981-05-12s1t03.flac:93498713bc7463ca6669ef5706d71744
gd1981-05-12s1t04.flac:47b0d4fa76e6370cf6748594f78410f5
gd1981-05-12s1t05.flac:97af7feb5a7f72d2c54f0185a7e3b2be
gd1981-05-12s1t06.flac:c02329257a836c7d545f63cf334fa5e1
gd1981-05-12s1t07.flac:29c7e9f13fec04acc7c074b094225293
gd1981-05-12s1t08.flac:d525f5f9eb78df623466ee35fbfad1ed
gd1981-05-12s1t09.flac:a883657395762a0f96bdbe802dc7e248
gd1981-05-12s1t10.flac:f054136e0613f0d26607c39f23d5bfbe
gd1981-05-12s1t11.flac:b273d34e23498e4654bd651e0b2d6a94
gd1981-05-12s2t01.flac:912e149dc6671f2dec02ad62040ea808
gd1981-05-12s2t02.flac:20645871ae8a93b9909f707da5aace59
gd1981-05-12s2t03.flac:979476a6b483a92edf6972d1345dd451
gd1981-05-12s2t04.flac:af2792cf8237a74ae55e6d7a971915b0
gd1981-05-12s2t05.flac:efe51fd4587057d60af005038ecb87ad
gd1981-05-12s2t06.flac:014982d5baf4f09914bafced5e445c13
gd1981-05-12s2t07.flac:4216f973dcc1d5ad59c55afc2c48f8c8
gd1981-05-12s2t08.flac:1422e42f8e0f088e23a6db076fba882a
gd1981-05-12s2t09.flac:6ae8266794a45f8acedbf7d50d30b79c
gd1981-05-12s2t10.flac:a60d9062ee8227e3c1e919518e3de63b
gd1981-05-12s2t11.flac:21e5759384f051ac2b55568a49718b1e
gd1981-05-12s2t12.flac:57bb6e1b1d43753df62c7bf4fc4cfad5
gd1981-05-12s2t13.flac:0aff6821cfcd795ad530baaaad5f815a
gd1981-05-12s2t14.flac:f33f4d54e62debd5449db71a0f7d01b7
flac-md5
01c101ce4e1b5a5fad5f4e0228eedd41 *gd1981-05-12s1t01.flac
650c8aa042b09a3ba31876b6a635038f *gd1981-05-12s1t02.flac
58c03676840b41d12f5b93346b54ea0b *gd1981-05-12s1t03.flac
810f336820e6eccbf843a2efb12bec22 *gd1981-05-12s1t04.flac
dcfd75271d93fdd13526aade24b7a1a9 *gd1981-05-12s1t05.flac
c12d2a7c9bd1affbe92558adfd93e956 *gd1981-05-12s1t06.flac
1265acaf2976d230c277a78a9ac54492 *gd1981-05-12s1t07.flac
f8fc03916148ecd9dcce062ab48708e3 *gd1981-05-12s1t08.flac
838034a349aae0f6f64e6aaed405cfdc *gd1981-05-12s1t09.flac
7b85dc39a5efa7c3ab7cb9dd5f5b1304 *gd1981-05-12s1t10.flac
2ac9cc65d92dd71fb385f009c58f3806 *gd1981-05-12s1t11.flac
7339c13e0b9a6f08051fe2ddda76d4b1 *gd1981-05-12s2t01.flac
36f05b452edfcc2c6bdff80f3b847084 *gd1981-05-12s2t02.flac
18aba9ece99ccc77425de7d73d38a8a8 *gd1981-05-12s2t03.flac
98973cbb15cea1f7bfd7ce0cad6d3486 *gd1981-05-12s2t04.flac
3d845693ae4708f2f556ff031410c27a *gd1981-05-12s2t05.flac
73b782999ae8b9bb6f6599c34d1fdc8d *gd1981-05-12s2t06.flac
83ef836e811a0e3504b0099087f41c79 *gd1981-05-12s2t07.flac
76a5245470a5e9ae6c1cf99157de47a3 *gd1981-05-12s2t08.flac
61e8f64fdb38d5f9f6669ce498be15e8 *gd1981-05-12s2t09.flac
bbe188ca9ba2db0fd2a0ce2e3a8c1a21 *gd1981-05-12s2t10.flac
bb6b313bfc10cf7545149905543db0c0 *gd1981-05-12s2t11.flac
4259ae54f05830e94220fb207e273ee2 *gd1981-05-12s2t12.flac
e1fc4b674aa92c545a500ac2d98dc46f *gd1981-05-12s2t13.flac
85ce100146f500368590e1d5c2475000 *gd1981-05-12s2t14.flac

Comments
Add Comment
Other Sources (comments)
SBD> Master Cassette>... (9) essentially same as (3) flac16; Set 1... (0) flac16; Matrix by... (1) flac24; AUD: 3x... (1) flac16; Updated... (1) flac16; Recording... (0) flac16; source: aud... (0) flac24; source: aud... (0) flac16; Source Info:... (0) flac24; Source Info:... (0)
Date User Comment
02/08/2013 nfagdtrfb text file correction: taped by Tim Friend & Joe Morrone, thanks guys!