Browse Collections Artists Sources   Search Dates

Add Show    List Management    Help


Jerry Garcia Band 02/16/80
Gym, U. of New Haven, New Haven, CT
Comments Add Comment    Source Collectors    Add to Collection    Add to Want List    History
Source # 102002 Other Sources
Entered by Joe Jupille
Checksums md5 , ffp
Disc Counts 0 / 0
Media Size
Date Circulated
Date Added
10/12/2009
10/14/2009
Source Summary (FOB) Unknown mics (2) > Cassette Master (Marantz Superscope CD320/Maxell UDXLII). Cassette Master (Nakamichi DR-1) > Korg MR-1000 (1-bit/5.6MHz) > Audiogate (1-bit/5.6MHz > 16-bit/44.1KHz) > cdwav (edits). Taped and transferred by Bob Morris. 
Source Information - Download Text | Download Zip
Jerry Garcia Band - February 16, 1980
Univ. of New Haven Gymnasium - New Haven, Connecticut

(FOB) Unknown mics (2) > Cassette Master
(Marantz Superscope CD320/Maxell UDXLII)

Cassette Master (Nakamichi DR-1) > Korg MR-1000 (1-bit/5.6MHz) >
Audiogate (1-bit/5.6MHz > 16-bit/44.1KHz) > cdwav (edits)

Disc One - Set 1

01 How Sweet It Is
02 They Love Each Other
03 Let It Rock
04 Simple Twist of Fate
05 That's Alright Mama

Disc Two - Set 2

01 It Takes A Lot To Laugh, It Takes A Train To Cry
02 Tore Up Over You
03 Russian Lullaby
04 tuning
05 The Harder They Come

Encore
06 tuning
07 When I Paint My Masterpiece

Notes - Left channel dropout in Harder They Come (from 0:00 to 0:13)
patched w/ right channel using Soundforge 9.0
2-second dropout in Harder They Come (at 0:13) edited with Soundforge
Recorded by Bob Morris - thanks to Sam for help
Transferred by Bob M 7/09
Flaced and shared by Chuck T./Crazyfingers


shntool 3.0.4
Copyright (C) 2000-2007 Jason Jordan

    length     expanded size    cdr  WAVE problems  fmt   ratio  filename
     7:36.38       80527820 B   ---   --   ---xx   flac  0.5945  jgb80-02-16audd1t01.flac
     6:56.55       73511804 B   ---   --   ---xx   flac  0.5804  jgb80-02-16audd1t02.flac
     9:31.60      100865564 B   ---   --   ---xx   flac  0.6062  jgb80-02-16audd1t03.flac
    16:20.10      172895564 B   ---   --   ---xx   flac  0.5382  jgb80-02-16audd1t04.flac
     7:45.09       82047212 B   ---   --   ---xx   flac  0.6078  jgb80-02-16audd1t05.flac
    11:08.23      117889340 B   ---   --   ---xx   flac  0.5494  jgb80-02-16audd2t01.flac
     8:57.55       94856204 B   ---   --   ---xx   flac  0.5670  jgb80-02-16audd2t02.flac
    12:33.06      132843356 B   ---   --   ---xx   flac  0.5081  jgb80-02-16audd2t03.flac
     0:16.48        2935340 B   ---   --   ---xx   flac  0.2428  jgb80-02-16audd2t04.flac
    12:02.72      127530188 B   ---   --   ---xx   flac  0.5741  jgb80-02-16audd2t05.flac
     0:10.21        1813436 B   ---   --   ---xx   flac  0.5169  jgb80-02-16audd2t06.flac
     9:47.42      103645628 B   ---   --   ---xx   flac  0.6013  jgb80-02-16audd2t07.flac
   103:06.64     1091361456 B                            0.5661  (12 files)
Show Checksums
md5
90f0904cfc4f27f96834d5564303651f *jgb80-02-16audd1t01.flac
1bd198caa290cae91dacf40ac080176b *jgb80-02-16audd1t02.flac
1bea1afde12fa51269b702c3365fbd5a *jgb80-02-16audd1t03.flac
75869a935a4d06c6b3ae410084ffaf57 *jgb80-02-16audd1t04.flac
b8b5f72d141367ded0953ac5142ba75b *jgb80-02-16audd1t05.flac
1a53a09596d50398bcfc4bb012689907 *jgb80-02-16audd2t01.flac
1f523072b92e8a45e28ad33017cb4066 *jgb80-02-16audd2t02.flac
5fe4a8687fdb58978e4f7d04f173bdfb *jgb80-02-16audd2t03.flac
8c8c59e1f509847fb431f3487434989c *jgb80-02-16audd2t04.flac
08a90c4e63d3a5bcceb9218be7e40e1c *jgb80-02-16audd2t05.flac
d6a0d923aa3affc0e74bb55707318938 *jgb80-02-16audd2t06.flac
da97b8d8bcce4e82de77e8bea08ea677 *jgb80-02-16audd2t07.flac
ffp
jgb80-02-16audd1t01.flac:af60d377a428c65016e3b2bc7b4020c5
jgb80-02-16audd1t02.flac:cd70c0e3d2c680a62427b1cf8399bfac
jgb80-02-16audd1t03.flac:00949eec50882716a331d2f617461a16
jgb80-02-16audd1t04.flac:0ef7433f2a3da2ec8681fdd1cf645177
jgb80-02-16audd1t05.flac:9630facca38a824bad080cd70c9f4edf
jgb80-02-16audd2t01.flac:a30bd35902c6c07cd2b1af0342d05ad5
jgb80-02-16audd2t02.flac:c532e78d73dde9c2640ebea2ef528cd0
jgb80-02-16audd2t03.flac:609484fc9aca74ec86d04d8db9303197
jgb80-02-16audd2t04.flac:baecea7eb12db3b05b3c2207988c477d
jgb80-02-16audd2t05.flac:4ddd93bd030cd1b5cfcf530f8f354451
jgb80-02-16audd2t06.flac:94feeada0070e10f832a2d318723f1f4
jgb80-02-16audd2t07.flac:64ebedada90afd4bdfd88b2fc4ab75ce

Comments
Add Comment
Other Sources (comments)
Source: aud cassette... (0) flac1644: Bob... (0) flac2496; (FOB)... (0)
Date User Comment