Browse Collections Artists Sources   Search Dates

Add Show    List Management    Help


Garcia 07/26/80
Convention Hall, Asbury Park, NJ
Comments Add Comment    Source Collectors    Add to Collection    Add to Want List    History
Source # 102003 Other Sources
Entered by Joe Jupille
Checksums md5 , ffp
Disc Counts 2 / 2
Media Size
Date Circulated
Date Added
10/13/2009
10/14/2009
Source Summary early and late shows; Unknown mics (2) > Cassette Master (Marantz Superscope CD320/Maxell UDXLII); Cassette Master (Nakamichi DR-1) > Korg MR-1000 (1-bit/5.6MHz) > Audiogate (1-bit/5.6MHz > 16-bit/44.1KHz) > cdwav (edits). Taped and transferred by Bob Morris. 
Source Information - Download Text | Download Zip
Jerry Garcia Band - July 26, 1980 - Early and Late Shows
Convention Hall - Asbury Park, New Jersey

Unknown mics (2) > Cassette Master
(Marantz Superscope CD320/Maxell UDXLII)

Cassette Master (Nakamichi DR-1) > Korg MR-1000 (1-bit/5.6MHz) >
Audiogate (1-bit/5.6MHz > 16-bit/44.1KHz) > cdwav (edits)

Early Show - Disc One

(missing: Sugaree)
(missing: Catfish John)
01 //Tore Up Over You
02 Simple Twist//of Fate
03 /Mystery Train
04 /Mission in the Rain

Encore
05 tuning
06 Let It Rock

Late Show - Disc Two

01 //I'll Take A Melody
02 tuning
03 Deal
04 Russian Lullaby
05 Tangled Up In Blue

Encore
06 /Dear Prudence

Notes - Dropout in STOF spliced at 9:08 using Soundforge 9.0.
Low levels in part of Prudence corrected during transfer.
Early Show recorded by Sam (Amanda) Rhodes.
Late Show recorded by Bob Morris - thanks to Sam for help.
Transferred & edited by Bob Morris 7/09.
Flaced and shared by Chuck T./Crazyfingers


shntool 3.0.4
Copyright (C) 2000-2007 Jason Jordan

    length     expanded size    cdr  WAVE problems  fmt   ratio  filename
     6:27.63       68415020 B   ---   --   ---xx   flac  0.6594  jgb80-07-26d1t01.flac
    13:51.24      146644892 B   ---   --   ---xx   flac  0.6093  jgb80-07-26d1t02.flac
     8:29.05       89799404 B   ---   --   ---xx   flac  0.6403  jgb80-07-26d1t03.flac
    13:13.16      139922876 B   ---   --   ---xx   flac  0.6511  jgb80-07-26d1t04.flac
     0:32.13        5675420 B   ---   --   ---xx   flac  0.5967  jgb80-07-26d1t05.flac
    10:19.46      109299836 B   ---   --   ---xx   flac  0.6497  jgb80-07-26d1t06.flac
    10:08.40      107345324 B   ---   --   ---xx   flac  0.6241  jgb80-07-26d2d01.flac
     0:41.73        7404140 B   ---   --   ---xx   flac  0.5609  jgb80-07-26d2d02.flac
     9:27.29      100087052 B   ---   --   ---xx   flac  0.6383  jgb80-07-26d2d03.flac
    14:19.00      151527644 B   ---   --   ---xx   flac  0.5549  jgb80-07-26d2d04.flac
    11:14.72      119062988 B   ---   --   ---xx   flac  0.6512  jgb80-07-26d2d05.flac
    12:18.42      130282028 B   ---   --   ---xx   flac  0.6232  jgb80-07-26d2d06.flac
   111:03.48     1175466624 B                            0.6256  (12 files)
Show Checksums
md5
9a865a774667803bd9d323fcc976cf13 *jgb80-07-26d1t01.flac
732b6563a9b89800c50e59ec888312f7 *jgb80-07-26d1t02.flac
73f1674967205e8e7159e6b93f119dcf *jgb80-07-26d1t03.flac
64fc733c99c4db63e105c8ab023e89f6 *jgb80-07-26d1t04.flac
a82dcc91cb2ffefb92a6f3644d114c2a *jgb80-07-26d1t05.flac
3949aa6d3a7b1e3eee7cba4583b2472f *jgb80-07-26d1t06.flac
e52e9b2a02cdfd57f7097b5d3b1a4ecb *jgb80-07-26d2d01.flac
9eefadf8f2d4ab0bbf2d6d7831588c3d *jgb80-07-26d2d02.flac
7a1d3d3f47ef3f2740bffa9c40fce885 *jgb80-07-26d2d03.flac
9718da9add7279da6f4d27ad8cd9bfe9 *jgb80-07-26d2d04.flac
b6167f09a12b3b420e460548b28d3617 *jgb80-07-26d2d05.flac
b1353bc8178ca762d8a08966e487bb95 *jgb80-07-26d2d06.flac
ffp
jgb80-07-26d1t01.flac:fb370f90f3c13767f47b29461022e307
jgb80-07-26d1t02.flac:090c6e157ffff77bb61662a6cec479b9
jgb80-07-26d1t03.flac:5a987468af71dbe3c81f1be0070d20f5
jgb80-07-26d1t04.flac:d403e7594f528107097eea36c0891813
jgb80-07-26d1t05.flac:618fa194c8130254906881ce145f817f
jgb80-07-26d1t06.flac:209e4ff08fffee70f5f901767dad8fbf
jgb80-07-26d2d01.flac:d194cc8bae8b8a7be0c5fa909932a097
jgb80-07-26d2d02.flac:3a9ba14f21426f14875e568ce9a9c5d3
jgb80-07-26d2d03.flac:0f4e42e9dd6615e54da6661134d8cde7
jgb80-07-26d2d04.flac:7740f11525e1dd65e4146d1a829793ac
jgb80-07-26d2d05.flac:2f95632f0fb048d7801f09368b45aeb0
jgb80-07-26d2d06.flac:57530160a111b14b6641d3cf585db0cb

Comments
Add Comment
Other Sources (comments)
Jerry Garcia Band, Early... (0)
Date User Comment