Browse Collections Artists Sources   Search Dates

Add Show    List Management    Help


Jerry Garcia Band 02/07/81
Orpheum Theater, Boston, MA
Comments Add Comment    Source Collectors    Add to Collection    Add to Want List    History
Source # 102007 Other Sources
Entered by Joe Jupille
Checksums ffp , md5
Disc Counts 2 / 3
Media Size
Date Circulated
Date Added
10/13/2009
10/14/2009
Source Summary early and late shows; Bob Morris's Nakamichi CM-300 (CP-1) (2) > Cassette Master (Marantz Superscope CD320/Maxell UDXLII C-90); Cassette Master (Nakamichi DR-1) > Korg MR-1000 (1-bit/5.6MHz) > Audiogate (1-bit/5.6MHz > 16-bit/44.1KHz) > cdwav (edits). Transferred by Bob Morris, with material from Steve Rolfe recording. 
Source Information - Download Text | Download Zip
Jerry Garcia Band - February 7, 1981 - Early and Late Shows
Orpheum Theater - Boston, Massachusetts

Nakamichi CM-300 (CP-1) (2) > Cassette Master
(Marantz Superscope CD320/Maxell UDXLII C-90)

Cassette Master (Nakamichi DR-1) > Korg MR-1000 (1-bit/5.6MHz) >
Audiogate (1-bit/5.6MHz > 16-bit/44.1KHz) > cdwav (edits)

Disc One - Early Show

tuning
How Sweet It Is
Catfish John
tuning
That's What Love Will Make You Do
tuning
Like A Road
tuning
Love In The Afternoon
Sugaree
Tangled Up In Blue

Disc Two (Rolfe source) - Late Show Pt 1

The Harder They Come
They Love Each Other
Tore Up Over You
Mission In The Rain
I'll Take A Melody

Disc Three - Late Show Pt 2

Mississippi Moon
Dear Prudence
Deal ->
Midnight Moonlight

Notes - Early Show recorded from Section RBX, Row C, Seat 7;
Late Show recorded from Orchestra, Row JJ, Seat 118.
Patch source (Rolfe's shnid 8648 Nak 700's) supplies all of Disc 2,
tracks 1 & 2 on Disc 3, & patch in Midnight Moonlight (0:19-0:37).
Recorded by Bob Morris -- thanks to Sam for help.
Transferred, edited, patched (Soundforge 9.0) by Bob M 8/09.
Flaced and shared by Chuck T./Crazyfingers

shntool 3.0.4
Copyright (C) 2000-2007 Jason Jordan

    length     expanded size    cdr  WAVE problems  fmt   ratio  filename
     0:36.00        6350444 B   ---   --   ---xx   flac  0.5490  jgb81-02-07d1t01.flac
     8:41.38       91993820 B   ---   --   ---xx   flac  0.6006  jgb81-02-07d1t02.flac
    11:10.43      118289180 B   ---   --   ---xx   flac  0.5851  jgb81-02-07d1t03.flac
     0:27.72        4932188 B   ---   --   ---xx   flac  0.5081  jgb81-02-07d1t04.flac
     9:07.05       96502604 B   ---   --   ---xx   flac  0.5894  jgb81-02-07d1t05.flac
     1:08.15       12030524 B   ---   --   ---xx   flac  0.5336  jgb81-02-07d1t06.flac
    11:39.45      123409484 B   ---   --   ---xx   flac  0.5553  jgb81-02-07d1t07.flac
     0:29.30        5186204 B   ---   --   ---xx   flac  0.5259  jgb81-02-07d1t08.flac
    11:39.69      123465932 B   ---   --   ---xx   flac  0.5631  jgb81-02-07d1t09.flac
     9:58.62      105633068 B   ---   --   ---xx   flac  0.6026  jgb81-02-07d1t10.flac
     8:22.44       88656332 B   ---   --   ---xx   flac  0.6133  jgb81-02-07d1t11.flac
    12:23.41      131161676 B   ---   --   ---xx   flac  0.6077  jgb81-02-07d2t01.flac
     8:59.25       95138444 B   ---   --   ---xx   flac  0.6133  jgb81-02-07d2t02.flac
     9:48.41      103819676 B   ---   --   ---xx   flac  0.6301  jgb81-02-07d2t03.flac
    10:35.22      112065788 B   ---   --   ---xx   flac  0.6160  jgb81-02-07d2t04.flac
    13:50.01      146414396 B   ---   --   ---xx   flac  0.6079  jgb81-02-07d2t05.flac
    11:12.44      118644332 B   ---   --   ---xx   flac  0.5676  jgb81-02-07d3t01.flac
    11:53.62      125919068 B   ---   --   ---xx   flac  0.6197  jgb81-02-07d3t02.flac
     7:25.01       78500396 B   ---   --   ---xx   flac  0.5853  jgb81-02-07d3t03.flac
     8:31.28       90206300 B   ---   --   ---xx   flac  0.5883  jgb81-02-07d3t04.flac
   168:01.13     1778319856 B                            0.5952  (20 files)
Show Checksums
ffp
jgb81-02-07d1t01.flac:4aece8cbc70cd1ce7f3dff97c760b5fe
jgb81-02-07d1t02.flac:a46f00e4e184716dda6f7f042de5b2e1
jgb81-02-07d1t03.flac:379d5c13ac70292ccb0b94a8668a2509
jgb81-02-07d1t04.flac:344e156e68866507851af1c0b19feacf
jgb81-02-07d1t05.flac:38453f950519e705eb9654f3b8b7ddfb
jgb81-02-07d1t06.flac:8c88c5244ce0f07fdfd49c43cb5ef29f
jgb81-02-07d1t07.flac:03c453f61489fa6350dbecbdaec67b06
jgb81-02-07d1t08.flac:81ec61d3c35671dddcae822b19ab0ef6
jgb81-02-07d1t09.flac:e817e25bc7acb1379518c935c0f52706
jgb81-02-07d1t10.flac:688cfaf84dea63f0d2d1a8a325d9bfd0
jgb81-02-07d1t11.flac:d72205fd79a1e91ebd749918b4854fed
jgb81-02-07d2t01.flac:ab6c14558f3f877ca5aa4e0737f44b91
jgb81-02-07d2t02.flac:d7245eae26fce0bff7eb3dc5df0e8412
jgb81-02-07d2t03.flac:ca5407f4396847c74fa52634322c7e64
jgb81-02-07d2t04.flac:250e7595a184867bea699cd4ba37f26f
jgb81-02-07d2t05.flac:8d88755c9251127071a26a436f351744
jgb81-02-07d3t01.flac:5e85615c303867960037bdf3f08e536c
jgb81-02-07d3t02.flac:75a8c771d0e12419cfebd22d2eae9f27
jgb81-02-07d3t03.flac:1256c242baf096484d88530ae1079a70
jgb81-02-07d3t04.flac:c0e03c26971f9e2439be9136e1392831
md5
e18a25d776c7a1cd9bca722f3ebb7229 *jgb81-02-07d1t01.flac
f2c31251c1028f5678e8f080dc84ebfe *jgb81-02-07d1t02.flac
bd8223bbe589230377765caa0c332991 *jgb81-02-07d1t03.flac
7bed23418c3231188b729749f09c9d1b *jgb81-02-07d1t04.flac
3d610cf4c0c17be529b98372a73da861 *jgb81-02-07d1t05.flac
08d28abd3e39d5fc17e98f65ccd6aa77 *jgb81-02-07d1t06.flac
378d11a5783e82623c5014a250131e8f *jgb81-02-07d1t07.flac
0fb830af3a2b225188175b61cc1f38d3 *jgb81-02-07d1t08.flac
1a44e0e30ee1b6d537e3359291220eda *jgb81-02-07d1t09.flac
e31901aef72432cce15cdd1731df001f *jgb81-02-07d1t10.flac
47a711a280269732046ed6c27a9ea690 *jgb81-02-07d1t11.flac
8f16c351177a227a6c3ee657c1cff890 *jgb81-02-07d2t01.flac
5d523a55baf97931a7314b1b871ecae8 *jgb81-02-07d2t02.flac
647be23c1e7ef119560619a543b9c78b *jgb81-02-07d2t03.flac
c70ff54bd4da08232f8e4c005830526a *jgb81-02-07d2t04.flac
03b4682b8260053dad255292f3c0e211 *jgb81-02-07d2t05.flac
c7af4ae1c2dfcdb928b68db76cf1b9b1 *jgb81-02-07d3t01.flac
53e61d0ac0d5220682a738661ec10912 *jgb81-02-07d3t02.flac
4b64b567d1cbc1919918f76a5993411e *jgb81-02-07d3t03.flac
d7616876f5953f0e54c193fd4f2fd7c8 *jgb81-02-07d3t04.flac

Comments
Add Comment
Other Sources (comments)
Early & Late: Steve Rolfe's... (0) early and late shows;... (0)
Date User Comment