Browse Collections Artists Sources   Search Dates

Add Show    List Management    Help


Jerry Garcia Band 02/09/81
Ocean State Theater, Providence, RI
Comments Add Comment    Source Collectors    Add to Collection    Add to Want List    History
Source # 102008 Other Sources
Entered by Joe Jupille
Checksums ffp , md5
Disc Counts 0 / 0
Media Size
Date Circulated
Date Added
10/13/2009
10/14/2009
Source Summary Nakamichi CM-300 (CP-1) (2) > Cassette Master (Marantz Superscope CD320/Maxell UDXLII C-90); Cassette Master (Nakamichi DR-1) > Korg MR-1000 (1-bit/5.6MHz) > Audiogate (1-bit/5.6MHz > 16-bit/44.1KHz) > cdwav (edits). Taped and transferred by Bob Morris. 
Source Information - Download Text | Download Zip
Jerry Garcia Band - February 9, 1981
Ocean State Performing Arts Center - Providence, Rhode Island

Nakamichi CM-300 (CP-1) (2) > Cassette Master
(Marantz Superscope CD320/Maxell UDXLII C-90)

Cassette Master (Nakamichi DR-1) > Korg MR-1000 (1-bit/5.6MHz) >
Audiogate (1-bit/5.6MHz > 16-bit/44.1KHz) > cdwav (edits)

Disc One - Set 1

01 Sugaree
02 Love In The Afternoon
03 tuning
04 That's What Love Will Make You Do
05 Simple Twist of Fate
06 Sitting in Limbo
07 Tangled Up In Blue

Disc Two - Set 2

01 tuning
02 I'll Take A Melody
03 tuning
04 How Sweet It Is
05 tuning
06 The Harder They Come
07 Mission in the Rain
08 Dear Prudence ->
09 Deal ->
10 Midnight Moonlight

Notes - Tape flip in Simple Twist of Fate.
Patched using Soundforge 9.0 (shnid 20608 Nak 700's):
Sugaree (0:00-6:20); Simple Twist (12:51-15:43).
Recorded from Orchestra Section Rgt, Row V, Seat 24 by Bob Morris.
Transferred, edited, patched by Bob M 8/09.



shntool 3.0.4
Copyright (C) 2000-2007 Jason Jordan

    length     expanded size    cdr  WAVE problems  fmt   ratio  filename
    12:17.60      130147964 B   ---   --   ---xx   flac  0.5484  jgb81-02-09d1t01.flac
     9:27.09      100040012 B   ---   --   ---xx   flac  0.5686  jgb81-02-09d1t02.flac
     0:27.36        4847516 B   ---   --   ---xx   flac  0.4965  jgb81-02-09d1t03.flac
     9:57.70      105475484 B   ---   --   ---xx   flac  0.5629  jgb81-02-09d1t04.flac
    17:20.24      183512492 B   ---   --   ---xx   flac  0.5028  jgb81-02-09d1t05.flac
    11:40.00      123480044 B   ---   --   ---xx   flac  0.5270  jgb81-02-09d1t06.flac
    10:43.51      113545196 B   ---   --   ---xx   flac  0.5751  jgb81-02-09d1t07.flac
     0:50.31        8892956 B   ---   --   ---xx   flac  0.4910  jgb81-02-09d2t01.flac
    12:22.02      130893548 B   ---   --   ---xx   flac  0.5348  jgb81-02-09d2t02.flac
     0:31.28        5534300 B   ---   --   ---xx   flac  0.5208  jgb81-02-09d2t03.flac
     8:19.67       88181228 B   ---   --   ---xx   flac  0.5772  jgb81-02-09d2t04.flac
     0:25.39        4501772 B   ---   --   ---xx   flac  0.5631  jgb81-02-09d2t05.flac
    10:34.04      111847052 B   ---   --   ---xx   flac  0.5819  jgb81-02-09d2t06.flac
    10:24.66      110228876 B   ---   --   ---xx   flac  0.5805  jgb81-02-09d2t07.flac
    12:05.41      127986476 B   ---   --   ---xx   flac  0.5412  jgb81-02-09d2t08.flac
     6:33.58       69461660 B   ---   --   ---xx   flac  0.5629  jgb81-02-09d2t09.flac
     6:29.51       68739596 B   ---   --   ---xx   flac  0.5623  jgb81-02-09d2t10.flac
   140:31.37     1487316172 B                            0.5509  (17 files)
Show Checksums
ffp
jgb81-02-09d1t01.flac:9eb8b0141087728c156d8a45bf8b31bd
jgb81-02-09d1t02.flac:ad86971b93a01057641c63552178d2a5
jgb81-02-09d1t03.flac:665b3c0293d4eb9e167186eaa025d940
jgb81-02-09d1t04.flac:b44e6bdd92543148e96adc0f98ba986c
jgb81-02-09d1t05.flac:ef422312d23dc8b92849cce547dfa70b
jgb81-02-09d1t06.flac:ec1e07e9253070bb5a3460d4058c2747
jgb81-02-09d1t07.flac:e3431f672966d00da456a494b95315c6
jgb81-02-09d2t01.flac:c2a97eb371fb5a0b296ea6ef9b1ac477
jgb81-02-09d2t02.flac:116b9aa38e515cd4c0478b1448103ae7
jgb81-02-09d2t03.flac:cb2feb1fdcc751b601b7edba82cd2ba6
jgb81-02-09d2t04.flac:eb272346b1a4eff61c740b85011f91a7
jgb81-02-09d2t05.flac:d7d0807ce4059abe8e2fd7bf98d6c88f
jgb81-02-09d2t06.flac:8e6c189f1cf7ae55b77ef30e7b3f19b9
jgb81-02-09d2t07.flac:6a3cab59a13758b49966660633f66be3
jgb81-02-09d2t08.flac:4f9acbe3b33d62045530f11cc0ab8c31
jgb81-02-09d2t09.flac:9d68cf00b1f9d555b00023f2f87a9759
jgb81-02-09d2t10.flac:89af4e68a36c140394d87ebe62715876
md5
4464d08ba93332806e84b9c7ab62f527 *jgb81-02-09d1t01.flac
be4421e75ed8f2141c38611266285bc4 *jgb81-02-09d1t02.flac
bf5a0cd98bf40371aa5744ec74340843 *jgb81-02-09d1t03.flac
0b1981d4065905b528aae87186c39b09 *jgb81-02-09d1t04.flac
54c3fb431e038cf933b9d10e83d1affa *jgb81-02-09d1t05.flac
51a953614f78801f95151418418ce820 *jgb81-02-09d1t06.flac
f6d78e88630db6be43e98f131d2da612 *jgb81-02-09d1t07.flac
e14a9e9b46528ea9b44ae387bfd14321 *jgb81-02-09d2t01.flac
c21e6a0346b54c2264c204edf3f96050 *jgb81-02-09d2t02.flac
9a09685065467d801c05cb48f6b6961f *jgb81-02-09d2t03.flac
99c3bb12b573f900663b473ded0fd057 *jgb81-02-09d2t04.flac
7389112f98ff0eeb9cd5e1e7a2ff8a47 *jgb81-02-09d2t05.flac
98b007d653d1cc2df039c85400ad5688 *jgb81-02-09d2t06.flac
b54c1ab64a317adbf5a44133f61a694d *jgb81-02-09d2t07.flac
f3ecd1c788d3a68d1182662b3e343014 *jgb81-02-09d2t08.flac
d7b99ba01776cdfafec3c7533233250c *jgb81-02-09d2t09.flac
f8439b41e57b1b746e7f97b0529ef0cb *jgb81-02-09d2t10.flac

Comments
Add Comment
Date User Comment