Browse Collections Artists Sources   Search Dates

Add Show    List Management    Help


Jerry Garcia Band 11/13/81
Orpheum Theater, Boston, MA
Comments Add Comment    Source Collectors    Add to Collection    Add to Want List    History
Source # 102009 Other Sources
Entered by Joe Jupille
Checksums ffp , md5
Disc Counts 2 / 2
Media Size
Date Circulated
Date Added
10/13/2009
10/14/2009
Source Summary early and late shows; Nakamichi CM-300 (CP-1) (2) > Cassette Master (Marantz Superscope CD320/Maxell UDXLI C-90); Cassette Master (Nakamichi DR-1) > Korg MR-1000 (1-bit/5.6MHz) > Audiogate (1-bit/5.6MHz > 16-bit/44.1KHz) > cdwav (edits). Early show taped and transferred by Bob Morris. Late show from Steve Rolfe recording.  
Source Information - Download Text | Download Zip
Jerry Garcia Band - November 13, 1981
Orpheum Theater - Boston, Massachusetts

Nakamichi CM-300 (CP-1) (2) > Cassette Master
(Marantz Superscope CD320/Maxell UDXLI C-90)

Cassette Master (Nakamichi DR-1) > Korg MR-1000 (1-bit/5.6MHz) >
Audiogate (1-bit/5.6MHz > 16-bit/44.1KHz) > cdwav (edits)

Disc One - Early Show

01 tuning
02 Sugaree
03 tuning
04 Catfish John
05 tuning
06 That's What Love Will Make You Do
07 Simple Twist of Fate
08 tuning
09 Second That Emotion
10 tuning
11 Mississippi Moon ->
12 Deal

Disc Two - Late Show (Rolfe source)

01 The Way You Do The Things You Do
02 They Love Each Other
03 Valerie
04 The Harder They Come
05 power failure announcement (aud/?/cass)

Notes - Early show recorded from Balcony Row J, Seat 103 by Bob Morris.
Thanks to Sam for help. Transferred, edited, patched by Bob M 8/09.
Late show power failure announcements from unknown aud source.
Patched with Rolfe's shnid 12989 Nak 700's (using Soundforge 9.0):
Tape flip in Simple Twist of Fate (13:50-14:56) & late show tracks 1-4.



shntool 3.0.4
Copyright (C) 2000-2007 Jason Jordan

    length     expanded size    cdr  WAVE problems  fmt   ratio  filename
     0:36.49        6465692 B   ---   --   ---xx   flac  0.5986  jgb81-11-13d1t01.flac
    11:07.67      117816428 B   ---   --   ---xx   flac  0.6213  jgb81-11-13d1t02.flac
     0:51.11        9022316 B   ---   --   ---xx   flac  0.6025  jgb81-11-13d1t03.flac
     9:20.04       98793452 B   ---   --   ---xx   flac  0.6139  jgb81-11-13d1t04.flac
     0:20.60        3669164 B   ---   --   ---xx   flac  0.5938  jgb81-11-13d1t05.flac
     9:38.66      102114476 B   ---   --   ---xx   flac  0.6269  jgb81-11-13d1t06.flac
    14:56.26      158115596 B   ---   --   ---xx   flac  0.5771  jgb81-11-13d1t07.flac
     0:19.44        3455132 B   ---   --   ---xx   flac  0.5586  jgb81-11-13d1t08.flac
    10:57.26      115955996 B   ---   --   ---xx   flac  0.6207  jgb81-11-13d1t09.flac
     0:30.00        5292044 B   ---   --   ---xx   flac  0.5500  jgb81-11-13d1t10.flac
    10:13.70      108297884 B   ---   --   ---xx   flac  0.5867  jgb81-11-13d1t11.flac
     8:46.52       92908748 B   ---   --   ---xx   flac  0.6351  jgb81-11-13d1t12.flac
     7:34.35       80167964 B   ---   --   ---xx   flac  0.6773  jgb81-11-13d2t01.flac
     7:24.30       78392204 B   ---   --   ---xx   flac  0.6721  jgb81-11-13d2t02.flac
     7:17.40       77180924 B   ---   --   ---xx   flac  0.6619  jgb81-11-13d2t03.flac
    13:22.05      141484604 B   ---   --   ---xx   flac  0.6791  jgb81-11-13d2t04.flac
     2:15.60       23955164 B   ---   --   ---xx   flac  0.5871  jgb81-11-13d2t05.flac
   115:33.45     1223087788 B                            0.6281  (17 files)
Show Checksums
ffp
jgb81-11-13d1t01.flac:244368a9bf010faad9785501e4b5cfb3
jgb81-11-13d1t02.flac:7601b311c7a357489c9cfc088a610d21
jgb81-11-13d1t03.flac:62a8725a3369122d12a1112a6a72d1ae
jgb81-11-13d1t04.flac:360bfbc38ea7fd83bd102ca4b78cc876
jgb81-11-13d1t05.flac:fcc4f2c845d9a7abbd593d7e9588d3c9
jgb81-11-13d1t06.flac:904be41b5743b2ad63e9b892d0ddc403
jgb81-11-13d1t07.flac:bb92e90a53ba4fc7710987858e9d4ad0
jgb81-11-13d1t08.flac:bd2a730b29da1b855e30056cadb0e6f2
jgb81-11-13d1t09.flac:c25f10164be5ffdad903d1f421aa1c1d
jgb81-11-13d1t10.flac:ea4afce558c389f8748c7b02447ed0b7
jgb81-11-13d1t11.flac:34d570d84e6b9ec6af618ee256caa2cd
jgb81-11-13d1t12.flac:79512d023c9af49f80cf02cacc0bf288
jgb81-11-13d2t01.flac:3c1c6f710f6bf88cde9e5b1b0c0b1015
jgb81-11-13d2t02.flac:5d3227f28e4192d2dd3454952fd569d6
jgb81-11-13d2t03.flac:69282097eafb6123404346e4186d667c
jgb81-11-13d2t04.flac:3101644d5b3c6a8900ad50259d9e1cab
jgb81-11-13d2t05.flac:9fad8e205e43c2196b174d92cc7df730
md5
b6a5e525c45c89442ed455cc36708029 *jgb81-11-13d1t01.flac
7fe812ccf1789315cdf5040f5d29aef2 *jgb81-11-13d1t02.flac
a6a997d0b7d6a935c0c424cf2a7a5920 *jgb81-11-13d1t03.flac
8a13bb319e4f98d46b9577ebaa7fd799 *jgb81-11-13d1t04.flac
b392df896dc9f8c50ca3f3f3f55eb5bd *jgb81-11-13d1t05.flac
75223f70886f5810c19bd3b154b7236e *jgb81-11-13d1t06.flac
09db7d09f819591c9e9734f31963f81d *jgb81-11-13d1t07.flac
f858193de8d50509b4405f993515504e *jgb81-11-13d1t08.flac
0443901fafeadf824c66e42b646fb19b *jgb81-11-13d1t09.flac
827727165037e6a54549c892df062ba6 *jgb81-11-13d1t10.flac
066660fbe7a88ca7540616bdcaf1c3fc *jgb81-11-13d1t11.flac
26776d5e490220ffb5548c6a33d74b62 *jgb81-11-13d1t12.flac
5c1ae805807b59016b8fc520afa347ba *jgb81-11-13d2t01.flac
11d31e70d937d862d1f1349753a5ed51 *jgb81-11-13d2t02.flac
cd2a3b12656763fd90b5948c5966026b *jgb81-11-13d2t03.flac
071d8e2e23c4549f6b6771c25f6be394 *jgb81-11-13d2t04.flac
1e2fbaac189938c3dadae376fdbf26d5 *jgb81-11-13d2t05.flac

Comments
Add Comment
Date User Comment