Browse Collections Artists Sources   Search Dates

Add Show    List Management    Help


Grateful Dead 07/04/81
Manor Downs, Austin, TX
Comments Add Comment    Source Collectors    Add to Collection    Add to Want List    History
Source # 102022 Other Sources
Entered by dr.unclear
Checksums flac-md5 , ffp
Disc Counts 2 / 2
Media Size
Date Circulated
Date Added
10/14/2009
10/14/2009
Source Summary flac16; Nakamichi CM-300 Shotgun (CP-4) x2 > Cassette Master (Marantz Superscope CD320/Maxell UDXLII C-90) Cassette Master (Nakamichi DR-1) > Korg MR-1000 (1-bit/5.6MHz) > Audiogate (1-bit/5.6MHz > 16-bit/44.1kHz) > cdwav (edits); Recorded by Bob Morris 
  Archive
Source Information - Download Text | Download Zip
Grateful Dead - July 4, 1981
Manor Downs - Manor, Texas

Nakamichi CM-300 Shotgun (CP-4) x2 > Cassette Master
(Marantz Superscope CD320/Maxell UDXLII C-90)

Cassette Master (Nakamichi DR-1) > Korg MR-1000 (1-bit/5.6MHz) >
Audiogate (1-bit/5.6MHz > 16-bit/44.1kHz) > cdwav (edits)

Disc One

Set 1:

1 Jack Straw
2 Peggy-O
3 Me & My Uncle ->
4 Big River
5 Loser ->
6 Little Red Rooster
7 tuning
8 Tennessee Jed ->
9 New Minglewood Blues
10 China Cat Sunflower ->
11 I Know You Rider

Encore
12 One More Saturday Night

Disc Two

Set 2:

1 tuning
2 Feel Like A Stranger
3 Bird Song
4 Playing in the Band ->
5 drums ->
6 space ->
7 Not Fade Away ->
8 Wharf Rat ->
9 Sugar Magnolia

Notes - Patched w/ fob nak700 shnid 2216 as follows:
Jack Straw from 0.00 to 1:53; Me & My Uncle from 0.00 to 0.05;
Playing from 2:42 to 3:50; drums from 6:30 to 7:01;
Space through Wharf Rat (all); Sugar Magnolia from 0.00 to 4:40.
Recorded by Bob Morris; thanks to Sam for help.
Transferred, edited, and patched (Soundforge 9.0) by Bob M 8/09.
Flaced and shared by Chuck T./Crazyfingers


shntool 3.0.4
Copyright (C) 2000-2007 Jason Jordan

   length     expanded size    cdr  WAVE problems  fmt   ratio  filename
    6:38.63       70355420 B   ---   --   ---xx   flac  0.6340  gd81-07-04d1t01.flac
    7:20.37       77703068 B   ---   --   ---xx   flac  0.6524  gd81-07-04d1t02.flac
    2:58.57       31533308 B   ---   --   ---xx   flac  0.6574  gd81-07-04d1t03.flac
    5:48.08       61406060 B   ---   --   ---xx   flac  0.6735  gd81-07-04d1t04.flac
    7:00.10       74111564 B   ---   --   ---xx   flac  0.6642  gd81-07-04d1t05.flac
    8:40.27       91791548 B   ---   --   ---xx   flac  0.6696  gd81-07-04d1t06.flac
    0:20.05        3539804 B   ---   --   ---xx   flac  0.6585  gd81-07-04d1t07.flac
    8:12.02       86793548 B   ---   --   ---xx   flac  0.6661  gd81-07-04d1t08.flac
    6:22.14       67417772 B   ---   --   ---xx   flac  0.6675  gd81-07-04d1t09.flac
    6:59.65       74064524 B   ---   --   ---xx   flac  0.6659  gd81-07-04d1t10.flac
    4:55.70       52202684 B   ---   --   ---xx   flac  0.6712  gd81-07-04d1t11.flac
    5:19.21       56321036 B   ---   --   ---xx   flac  0.6767  gd81-07-04d1t12.flac
    1:32.34       16308812 B   ---   --   ---xx   flac  0.6394  gd81-07-04d2t01.flac
    8:57.28       94792700 B   ---   --   ---xx   flac  0.6757  gd81-07-04d2t02.flac
   11:28.48      121476140 B   ---   --   ---xx   flac  0.6744  gd81-07-04d2t03.flac
   14:43.22      155812988 B   ---   --   ---xx   flac  0.6762  gd81-07-04d2t04.flac
    7:02.00       74440844 B   ---   --   ---xx   flac  0.6327  gd81-07-04d2t05.flac
    5:48.20       61434284 B   ---   --   ---xx   flac  0.5188  gd81-07-04d2t06.flac
   10:36.52      112312748 B   ---   --   ---xx   flac  0.5872  gd81-07-04d2t07.flac
    9:36.71      101773436 B   ---   --   ---xx   flac  0.5694  gd81-07-04d2t08.flac
    9:34.49      101368892 B   ---   --   ---xx   flac  0.6268  gd81-07-04d2t09.flac
  149:56.28     1586961180 B                            0.6452  (21 files)
Show Checksums
flac-md5
a1c2672db4473f26fdc2e8a3ba834962 *gd81-07-04d1t01.flac
28a185daa476f8d447b518ac2069fcd6 *gd81-07-04d1t02.flac
ad97565e7cbb33e8b8baca1e8a2a2d0a *gd81-07-04d1t03.flac
56e82a0e4a3d41d73ec2ee3c128df08c *gd81-07-04d1t04.flac
5c81a70e91bd1f90c722c7d78c9da248 *gd81-07-04d1t05.flac
14967a5642a6c1d24a8aff5240332e37 *gd81-07-04d1t06.flac
a0ca24d032511b342d3f33b7d73a738f *gd81-07-04d1t07.flac
292523e2f85bdf6a949048ecae9117a9 *gd81-07-04d1t08.flac
2f122555cc89384b7ad77d638566307e *gd81-07-04d1t09.flac
dd39eee1441705a495a2342454c38353 *gd81-07-04d1t10.flac
5b3462b85a41373bb347e1db635c451a *gd81-07-04d1t11.flac
490d736a0c6ba11a4fa7011b14ff6945 *gd81-07-04d1t12.flac
f002c541baae491194089929f7204aa2 *gd81-07-04d2t01.flac
7dea76027c4ebd392159c55f4e8cd297 *gd81-07-04d2t02.flac
9622ed2deb7b1b3ea5682c0a403d8ea8 *gd81-07-04d2t03.flac
bfcdaa06e465e855e1bbda85625de9d8 *gd81-07-04d2t04.flac
3154c47676239ab650e3b46e8a05732b *gd81-07-04d2t05.flac
0045178dee6a111787ef750c3756b01f *gd81-07-04d2t06.flac
f0c3abd720cf68a1822083b93125b77b *gd81-07-04d2t07.flac
3e07388cdc0275b5c4ed62e4d61c2c35 *gd81-07-04d2t08.flac
4ca4b5052bb3002f4acc5faf6d9be27c *gd81-07-04d2t09.flac
ffp
gd81-07-04d1t01.flac:85e003ec0ae96e68bce130a6db89838a
gd81-07-04d1t02.flac:810f007f669e4bab5aed16bcbbe91092
gd81-07-04d1t03.flac:bf1299bd3715dbee46323814637de716
gd81-07-04d1t04.flac:e3e863b5d569fe2d268343f66d53d694
gd81-07-04d1t05.flac:f3aaab33ccb9530999b0f3f23083bc29
gd81-07-04d1t06.flac:aaf75537d43a532148dae1c7cf8e1a52
gd81-07-04d1t07.flac:bda4ed4f19d6349666dd9ce96dca8228
gd81-07-04d1t08.flac:99f2055ad1d4de62fe001792492111ec
gd81-07-04d1t09.flac:e648701824d577fe85383543606eb7d3
gd81-07-04d1t10.flac:b23dea03fc3bd331bf7007a2314bd948
gd81-07-04d1t11.flac:334e591f953b48bac90d7865379f7ba4
gd81-07-04d1t12.flac:5bf6d1b703acf97486c643b5c2797474
gd81-07-04d2t01.flac:c707932270f0a1d98302acccb1486a8a
gd81-07-04d2t02.flac:8b262c64fbe24e9befb8b66c41d72526
gd81-07-04d2t03.flac:b83aba491eda7e294c54b516f5a1dd29
gd81-07-04d2t04.flac:9d667545060655165f694baa1f807b9d
gd81-07-04d2t05.flac:87f5da167b6a5cc21cf7b7d51452acab
gd81-07-04d2t06.flac:2174de1f14c45e2fe2fe5bbe2cbc71d0
gd81-07-04d2t07.flac:db473dee226dea49a9308e2dfb0118d3
gd81-07-04d2t08.flac:15672910b26a609e3f25a9c4c81af1c3
gd81-07-04d2t09.flac:97e7602776afb0f5da40034a2d0dc1d1

Comments
Add Comment
Other Sources (comments)
Master FOB Audience... (1) Recording Info:SBD ->... (0) flac16; SBD ->... (0) flac16; Recording... (0) flac24; AUD: Unknown... (0) flac16; AUD: Unknown... (0) flac16/48kHz; Source... (0)
Date User Comment