Browse Collections Artists Sources   Search Dates

Add Show    List Management    Help


Grateful Dead 05/05/81
Glens Falls Civic Center, Glens Falls, NY
Comments Add Comment    Source Collectors    Add to Collection    Add to Want List    History
Source # 102023 Other Sources
Entered by dr.unclear
Checksums flac-md5 , ffp
Disc Counts 2 / 3
Media Size
Date Circulated
Date Added
10/14/2009
10/14/2009
Source Summary flac16; (FOB) Nakamichi CM-300 Shotgun (CP-4) x2 > Cassette Master (Marantz Superscope CD320/Maxell UDXLII C-90) Cassette Master (Nakamichi DR-1) > Korg MR-1000 (1-bit/5.6MHz) > Audiogate (1-bit/5.6MHz > 16-bit/44.1KHz) > cdwav (edits); Recorded FOB from floor Section 105, Row H, Seat 10 by Bob Morris 
  Archive
Source Information - Download Text | Download Zip
Grateful Dead - May 5, 1981
Glens Falls Civic Center - Glens Falls, New York

(FOB) Nakamichi CM-300 Shotgun (CP-4) x2 > Cassette Master
(Marantz Superscope CD320/Maxell UDXLII C-90)

Cassette Master (Nakamichi DR-1) > Korg MR-1000 (1-bit/5.6MHz) >
Audiogate (1-bit/5.6MHz > 16-bit/44.1KHz) > cdwav (edits)

Disc One

Set 1:

01 Feel Like A Stranger
02 Peggy-O ->
03 El Paso
04 Ramble On Rose
05 C.C. Rider
06 Brown-Eyes Women
07 tuning
08 Passenger
09 Althea
10 The Music Never Stopped ->
11 Don't Ease Me In

Set 2:

Disc Two

01 tuning
02 Scarlet Begonias ->
03 Fire on the Mountain

Disc Three

01 tuning
02 Estimated Prophet ->
03 Eyes of the World ->
04 drums ->
05 space
06 Uncle John's Band ->
07 Truckin' ->
08 Spanish jam ->
09 Alabama Getaway ->
10 Johnny B. Goode

Encore
11 U.S. Blues

Notes - Tape flips in drums at 0:00 and at 3:57.
Patched (Soundforge 9.0) with shnid 28356 Nak 300 shotguns:
Stranger (all); El Paso (0:36-1:44); C.C. Rider (0:00-0:02);
Music Never Stopped (2:53-4:24); Johnny B. Goode (2:28-3:19).
Recorded FOB from floor Section 105, Row H, Seat 10 by Bob Morris.
Thanks to Sam for help; Transferred, edited, & patched by Bob M 8/09.
Flaced and shared by Chuck T./Crazyfingers


shntool 3.0.4
Copyright (C) 2000-2007 Jason Jordan

   length     expanded size    cdr  WAVE problems  fmt   ratio  filename
    8:46.62       92932268 B   ---   --   ---xx   flac  0.6370  gd81-05-05d1t01.flac
    6:24.02       67742348 B   ---   --   ---xx   flac  0.5738  gd81-05-05d1t02.flac
    5:39.53       59924300 B   ---   --   ---xx   flac  0.5776  gd81-05-05d1t03.flac
    6:59.44       74015132 B   ---   --   ---xx   flac  0.5905  gd81-05-05d1t04.flac
    7:44.25       81908444 B   ---   --   ---xx   flac  0.6002  gd81-05-05d1t05.flac
    4:57.31       52463756 B   ---   --   ---xx   flac  0.6014  gd81-05-05d1t06.flac
    0:36.67        6508028 B   ---   --   ---xx   flac  0.5216  gd81-05-05d1t07.flac
    4:58.61       52710716 B   ---   --   ---xx   flac  0.6197  gd81-05-05d1t08.flac
   10:20.49      109483292 B   ---   --   ---xx   flac  0.5598  gd81-05-05d1t09.flac
    7:38.34       80871212 B   ---   --   ---xx   flac  0.6124  gd81-05-05d1t10.flac
    3:12.08       33887660 B   ---   --   ---xx   flac  0.6411  gd81-05-05d1t11.flac
    0:43.59        7724012 B   ---   --   ---xx   flac  0.5049  gd81-05-05d2t01.flac
   11:50.33      125321660 B   ---   --   ---xx   flac  0.6118  gd81-05-05d2t02.flac
   10:52.70      115177484 B   ---   --   ---xx   flac  0.6238  gd81-05-05d2t03.flac
    1:16.19       13451132 B   ---   --   ---xx   flac  0.5111  gd81-05-05d3t01.flac
   10:41.17      113112428 B   ---   --   ---xx   flac  0.6166  gd81-05-05d3t02.flac
   10:21.11      109570316 B   ---   --   ---xx   flac  0.6407  gd81-05-05d3t03.flac
    8:29.53       89912300 B   ---   --   ---xx   flac  0.5660  gd81-05-05d3t04.flac
    6:31.36       69057116 B   ---   --   ---xx   flac  0.5250  gd81-05-05d3t05.flac
   11:30.37      121803068 B   ---   --   ---xx   flac  0.6363  gd81-05-05d3t06.flac
    6:23.43       67662380 B   ---   --   ---xx   flac  0.6462  gd81-05-05d3t07.flac
    5:10.23       54738140 B   ---   --   ---xx   flac  0.6005  gd81-05-05d3t08.flac
    5:15.61       55709516 B   ---   --   ---xx   flac  0.6477  gd81-05-05d3t09.flac
    4:23.41       46489676 B   ---   --   ---xx   flac  0.6527  gd81-05-05d3t10.flac
    5:26.52       57628748 B   ---   --   ---xx   flac  0.6297  gd81-05-05d3t11.flac
  166:16.16     1759805132 B                            0.6074  (25 files)
Show Checksums
flac-md5
753a98d42b058d432558646d7858ac8d *gd81-05-05d1t01.flac
820c5fe61f1ea69869c6f0119112bd46 *gd81-05-05d1t02.flac
5830d29ba36ca0b0ffe34a84d6f200ea *gd81-05-05d1t03.flac
1349550ef9e1f18f2a10274caf67e018 *gd81-05-05d1t04.flac
2e76a95338311a98080c8f043932772f *gd81-05-05d1t05.flac
38c9384a6c97b85d81e9dd5727a0649e *gd81-05-05d1t06.flac
03a6355807e708e05bd641d7b639b31b *gd81-05-05d1t07.flac
6a7e44c5585af8ac46b6221e8785fee4 *gd81-05-05d1t08.flac
464963e9e965d3c4ee4fd13aa8068209 *gd81-05-05d1t09.flac
73f495955dcdfabf0ab214a6118b1778 *gd81-05-05d1t10.flac
5edc896e9dccf82d4e1ad6d29f48a722 *gd81-05-05d1t11.flac
4098902bbb001e192e7eeedf73ce7c61 *gd81-05-05d2t01.flac
0cbec1ed192262732857927d0abb593a *gd81-05-05d2t02.flac
5d89d3b6eaf0abb6ba45a64446f149f0 *gd81-05-05d2t03.flac
ff249a2460332fabbbfca2566d012660 *gd81-05-05d3t01.flac
1389a195f667ff844c6af496932668e3 *gd81-05-05d3t02.flac
0a9074a05e76dee4f970b2e0f01c3c03 *gd81-05-05d3t03.flac
5769580cb245fb9d54081bcfbfb41406 *gd81-05-05d3t04.flac
e65a8063c9b84386993ea427301a3c4d *gd81-05-05d3t05.flac
65529b1120a367a3e945e911e0aecab5 *gd81-05-05d3t06.flac
5ee9a7dcda619f1bc2b8ec85cad98ebe *gd81-05-05d3t07.flac
ce62ad884d31489c27f5992a34c78556 *gd81-05-05d3t08.flac
40cb133d9320ff86b3ba44a52a14ec10 *gd81-05-05d3t09.flac
314dfa0790ba260d793004744e5eedc7 *gd81-05-05d3t10.flac
02a97e95efb28a551216ef430fd9b04d *gd81-05-05d3t11.flac
ffp
gd81-05-05d1t01.flac:d7a9c0dc7f1c5a983958758061fd7867
gd81-05-05d1t02.flac:1aefbd8252537cdef7d719dab14296a2
gd81-05-05d1t03.flac:a02c669ce650396095e2cabe1e1eb279
gd81-05-05d1t04.flac:4474769e0fbd0a20ff89d6fce7bc273e
gd81-05-05d1t05.flac:df0939643f5a4284d9d1858361b7dc54
gd81-05-05d1t06.flac:a9b43ef1bfb633360dab517baff81ccf
gd81-05-05d1t07.flac:150e2d7d777d6273f08b506136f22fa6
gd81-05-05d1t08.flac:709bc491c403d7c5a8dec57bec766111
gd81-05-05d1t09.flac:a1e2de4b051657a81a8243892ed6b7fd
gd81-05-05d1t10.flac:4a1b8652f45a1b870c2c10331c98df11
gd81-05-05d1t11.flac:53cd8bd989ccdfe7d11028ddf0339aca
gd81-05-05d2t01.flac:7889fe346f0095ab309ab657747919b8
gd81-05-05d2t02.flac:36c099a3a77d0bc86f9b4e5c8bb8aafe
gd81-05-05d2t03.flac:cf3e6aaaa4a09d21dbdb573e0c2bedcc
gd81-05-05d3t01.flac:39aead7118fa5d1e7b54fb9aad8adf18
gd81-05-05d3t02.flac:d216c832fb82267daa855c8617448924
gd81-05-05d3t03.flac:9962e409a6ac3296be771e5e07630c76
gd81-05-05d3t04.flac:4ff8ee0359efb9fc2f48fdead17f64b2
gd81-05-05d3t05.flac:85ca35bfb90bc4412c4c2edd7c16ea48
gd81-05-05d3t06.flac:f8ed1703ef397eccea549e8092c0a31e
gd81-05-05d3t07.flac:dbec569c6614a6f2dde6fde7b3e6be07
gd81-05-05d3t08.flac:4f7bf56e740a2419dbcb2209f48c0d6b
gd81-05-05d3t09.flac:faa1f279dd53250173bff798ebd4285b
gd81-05-05d3t10.flac:276e48035517f88d0f49822ce940b90d
gd81-05-05d3t11.flac:9519e97a08c1dc39320324e722c3a882

Comments
Add Comment
Other Sources (comments)
Recording by Jim Wise.... (1) flac16; Recording by... (5) flac16; Set 2... (0) flac24; Cassette... (0) flac24; source: aud... (0) flac16; source: aud... (0) flac24; Jim Wise's... (0) flac16/48kHz; Jim... (0)
Date User Comment