Browse Collections Artists Sources   Search Dates

Add Show    List Management    Help


Grateful Dead 10/23/80
Radio City Music Hall, New York, NY
Comments Add Comment    Source Collectors    Add to Collection    Add to Want List    History
Source # 102026 Other Sources
Entered by dr.unclear
Checksums flac-md5 , ffp
Disc Counts 2 / 3
Media Size
Date Circulated
Date Added
10/14/2009
10/14/2009
Source Summary flac16; (FOB) Nakamichi CM-300 (CP-1) x2 > Cassette Master (Marantz Superscope CD320/TDK SA-C90 except Set 3: Maxell UDXLII-C90) Cassette Master (Nakamichi DR-1) > Korg MR-1000 (1-bit/5.6MHz) > Audiogate (1-bit/5.6MHz > 16-bit/44.1KHz) > cdwav (edits); Recorded from Orchestra Row A, Seat 310, by Bob Morris  
  Archive
Source Information - Download Text | Download Zip
Grateful Dead - October 23, 1980
Radio City Music Hall - New York City

(FOB) Nakamichi CM-300 (CP-1) x2 > Cassette Master
(Marantz Superscope CD320/TDK SA-C90 except Set 3: Maxell UDXLII-C90)

Cassette Master (Nakamichi DR-1) > Korg MR-1000 (1-bit/5.6MHz) >
Audiogate (1-bit/5.6MHz > 16-bit/44.1KHz) > cdwav (edits)

Disc One - Set 1 (acoustic):

(missing: On The Road Again)
01 //It Must Have Been The Roses
02 Dark Hollow
03 Jackaroe
04 tuning
05 Cassidy
06 tuning
07 China Doll
08 Monkey & The Engineer ->
09 Oh Babe It Ain't No Lie ->
10 Ripple

Disc Two

Set 2:

01 tuning
02 Feel Like A Stranger
03 "amazing how the Phillies won"
04 Tennessee Jed
05 tuning
06 Mama Tried ->
07 Mexicali Blues
08 tuning
09 Althea
10 tuning
11 Little Red Rooster
12 Big Railroad Blues
13 Music Never Stopped

Set 3:

14 tuning
15 Samson & Delilah
16 Ship of Fools

Disc Three

01 tuning
02 Estimated Prophet ->
03 Terrapin ->
04 dr//ums ->
05 space ->
06 The Wheel ->
07 Truckin' ->
08 Wharf Rat ->
09 Sugar Magnolia

Encore
10 tuning
11 Casey Jones

Notes - Tape flip in drums at 3:14 -- spliced using Soundforge 9.0.
Dropouts edited w/ SF9: Roses at 0:20; drums at 4:36 & 5:54.
Degraded quality in Stranger.
Recorded from Orchestra Row A, Seat 310, by Bob Morris.
Thanks to Sam for help and to Dave B for lending his Naks.
Transferred & edited by Bob M 7/09.
Flaced and shared by Chuck T./Crazyfingers

shntool 3.0.4
Copyright (C) 2000-2007 Jason Jordan

   length     expanded size    cdr  WAVE problems  fmt   ratio  filename
    5:55.09       62643212 B   ---   --   ---xx   flac  0.5744  gd80-10-23audd1t01.flac
    4:33.15       48192524 B   ---   --   ---xx   flac  0.6142  gd80-10-23audd1t02.flac
    4:31.46       47912636 B   ---   --   ---xx   flac  0.6177  gd80-10-23audd1t03.flac
    0:46.53        8239100 B   ---   --   ---xx   flac  0.5556  gd80-10-23audd1t04.flac
    4:46.57       50584508 B   ---   --   ---xx   flac  0.6522  gd80-10-23audd1t05.flac
    0:31.13        5499020 B   ---   --   ---xx   flac  0.5447  gd80-10-23audd1t06.flac
    5:19.09       56292812 B   ---   --   ---xx   flac  0.5705  gd80-10-23audd1t07.flac
    2:28.01       26109596 B   ---   --   ---xx   flac  0.6116  gd80-10-23audd1t08.flac
    7:04.03       74800700 B   ---   --   ---xx   flac  0.5354  gd80-10-23audd1t09.flac
    4:32.52       48103148 B   ---   --   ---xx   flac  0.5939  gd80-10-23audd1t10.flac
    0:39.62        7025468 B   ---   --   ---xx   flac  0.4888  gd80-10-23audd2t01.flac
    7:38.26       80852396 B   ---   --   ---xx   flac  0.5350  gd80-10-23audd2t02.flac
    0:53.51        9469196 B   ---   --   ---xx   flac  0.5304  gd80-10-23audd2t03.flac
    8:49.36       93400316 B   ---   --   ---xx   flac  0.6251  gd80-10-23audd2t04.flac
    0:25.71        4577036 B   ---   --   ---xx   flac  0.5277  gd80-10-23audd2t05.flac
    2:32.10       26836364 B   ---   --   ---xx   flac  0.6462  gd80-10-23audd2t06.flac
    4:21.30       46111004 B   ---   --   ---xx   flac  0.6518  gd80-10-23audd2t07.flac
    0:28.01        4941596 B   ---   --   ---xx   flac  0.5133  gd80-10-23audd2t08.flac
    8:15.00       87318044 B   ---   --   ---xx   flac  0.6072  gd80-10-23audd2t09.flac
    1:07.74       11992892 B   ---   --   ---xx   flac  0.5084  gd80-10-23audd2t10.flac
    9:10.14       97052972 B   ---   --   ---xx   flac  0.6303  gd80-10-23audd2t11.flac
    3:43.41       39433676 B   ---   --   ---xx   flac  0.6526  gd80-10-23audd2t12.flac
    7:48.43       82656380 B   ---   --   ---xx   flac  0.6681  gd80-10-23audd2t13.flac
    0:48.68        8627180 B   ---   --   ---xx   flac  0.4997  gd80-10-23audd2t14.flac
    7:10.58       75988460 B   ---   --   ---xx   flac  0.6469  gd80-10-23audd2t15.flac
    8:56.56       94682156 B   ---   --   ---xx   flac  0.5479  gd80-10-23audd2t16.flac
    2:05.06       22064156 B   ---   --   ---xx   flac  0.5302  gd80-10-23audd3t01.flac
   10:13.61      108276716 B   ---   --   ---xx   flac  0.6120  gd80-10-23audd3t02.flac
   12:05.63      128038220 B   ---   --   ---xx   flac  0.5885  gd80-10-23audd3t03.flac
    7:39.20       81014684 B   ---   --   ---xx   flac  0.5204  gd80-10-23audd3t04.flac
    2:34.20       27212684 B   ---   --   ---xx   flac  0.5061  gd80-10-23audd3t05.flac
    4:37.60       49003964 B   ---   --   ---xx   flac  0.6203  gd80-10-23audd3t06.flac
    6:52.00       72676844 B   ---   --   ---xx   flac  0.6566  gd80-10-23audd3t07.flac
   10:05.65      106874924 B   ---   --   ---xx   flac  0.5866  gd80-10-23audd3t08.flac
    8:21.05       88388204 B   ---   --   ---xx   flac  0.6599  gd80-10-23audd3t09.flac
    0:29.53        5240300 B   ---   --   ---xx   flac  0.5680  gd80-10-23audd3t10.flac
    5:36.66       59425676 B   ---   --   ---xx   flac  0.6713  gd80-10-23audd3t11.flac
  184:00.43     1947558764 B                            0.6022  (37 files)
Show Checksums
flac-md5
6e2460998d73bcfd5f591924db9caf2c *gd80-10-23audd1t01.flac
6ed7117fb153d26fa76fa7ec243fba5a *gd80-10-23audd1t02.flac
788083da46c5d46e9a6e4fc768b5a553 *gd80-10-23audd1t03.flac
b5034c10c3f01449bd72b34539d3fc2e *gd80-10-23audd1t04.flac
5183feb4b22d0a0788b6db0534f31e8b *gd80-10-23audd1t05.flac
c96fa8e2c7155e650eca3f3c55cb8b7f *gd80-10-23audd1t06.flac
99131952caab7c040a9fbf583c958436 *gd80-10-23audd1t07.flac
794cedd9e44ef6feee2315deacdb8ff2 *gd80-10-23audd1t08.flac
543bb1486691800da75cff0048a3a40e *gd80-10-23audd1t09.flac
ada600b3869690d435c5a5f08c6120ab *gd80-10-23audd1t10.flac
d18f21a96d7797cd67e84c450250ed4c *gd80-10-23audd2t01.flac
e2fa41235b97b23aa9079223cb5f92c2 *gd80-10-23audd2t02.flac
fa924e196dd2a1a317ad436269815c2e *gd80-10-23audd2t03.flac
086cb67daa8bce13d4d6f95f8c6a5f0f *gd80-10-23audd2t04.flac
27e0c4b7901fa55480979fa45bec88d0 *gd80-10-23audd2t05.flac
6fe9d92bfa151d9acae7db6ad7eeb6f9 *gd80-10-23audd2t06.flac
e598abec2ac876624706ffd32b1f33d9 *gd80-10-23audd2t07.flac
027223959b0c5b08c3b5b49482048351 *gd80-10-23audd2t08.flac
b677e57c71f62025594c19db0d080a90 *gd80-10-23audd2t09.flac
7712241e0304f1da0963f18bb49eaef2 *gd80-10-23audd2t10.flac
d93dfa19cae5d5d8b0ad45dbf2d868a5 *gd80-10-23audd2t11.flac
31a5749a3bb10f353faa51884816ca7d *gd80-10-23audd2t12.flac
4ac415832d5daf1a603d40b5ae693d93 *gd80-10-23audd2t13.flac
8cfb3bc48357ce5475640faa2b75f85c *gd80-10-23audd2t14.flac
fe149223a4b55612697e9d755d4a8e68 *gd80-10-23audd2t15.flac
c9b9f5b17c9ae6313d0bb1422d01b2e3 *gd80-10-23audd2t16.flac
b79f9ff282cc8d8a4ec7eb7c794ccbc3 *gd80-10-23audd3t01.flac
e669a3537a87fddc4da46c3c10d2ba76 *gd80-10-23audd3t02.flac
732074cd14e821ad6dd015c290a64e80 *gd80-10-23audd3t03.flac
670ca96bca8c87f4112e340864a2b10d *gd80-10-23audd3t04.flac
b9a98b410cc5314a9de88da305c5767c *gd80-10-23audd3t05.flac
754d80ff587c666ec17a51211f28069b *gd80-10-23audd3t06.flac
8377253e10722428fff726b8e2970d99 *gd80-10-23audd3t07.flac
162e1eb1d38307dfe3102aad768d3def *gd80-10-23audd3t08.flac
8106bc38797f2ec9d4b7bd9796966036 *gd80-10-23audd3t09.flac
db3d8384a95b05b8e8612c2a03fdaa3e *gd80-10-23audd3t10.flac
831e4585e2f206790c6897596afe1cc4 *gd80-10-23audd3t11.flac
ffp
gd80-10-23audd1t01.flac:cd71ce431cd2e66b0d582c056a2c8c50
gd80-10-23audd1t02.flac:2df1373cd64a609b1d733288370c807b
gd80-10-23audd1t03.flac:4086d13a9b2ec115473f50be2e42b64b
gd80-10-23audd1t04.flac:ee021434f643df78bf27146e917fd0af
gd80-10-23audd1t05.flac:0088f30f7143fa4beb5694448262234b
gd80-10-23audd1t06.flac:82c26fb0444d55733486233799aa72ae
gd80-10-23audd1t07.flac:339cba5e63e2691d4e7c9c776a83ad55
gd80-10-23audd1t08.flac:ee2b159667571c453204bb86e1d9fece
gd80-10-23audd1t09.flac:48d76b9662e5952fecd89f92682299c4
gd80-10-23audd1t10.flac:934fa2bf141f83baa0d005a94e714214
gd80-10-23audd2t01.flac:1fcecf58e4aef57fbbf02c990b0b0116
gd80-10-23audd2t02.flac:d05bc2b2c35b1f69fbbdaaa06ca0f1fc
gd80-10-23audd2t03.flac:cc6b19fbb4ad65f9ad261a177b5f2061
gd80-10-23audd2t04.flac:027c3fbd84047da446c0746f4ee5465b
gd80-10-23audd2t05.flac:dd8a77b21f53101fd5f153c85c98d690
gd80-10-23audd2t06.flac:efa4308e4a93ec219f9f79ce71a4db33
gd80-10-23audd2t07.flac:6a7c6b7f34df04c65dd7a0085504d570
gd80-10-23audd2t08.flac:a6cb7f08bc0d975f399cb6a0bf4c47aa
gd80-10-23audd2t09.flac:f69be1a9a56d48580e1c59f21f7a0727
gd80-10-23audd2t10.flac:1027e2aabb41fe1012e314433b658d8b
gd80-10-23audd2t11.flac:d7a9d0b50b0b5f4535c06b9e9994e76a
gd80-10-23audd2t12.flac:be4fa246ada56df2a9a50ab58c6b1db7
gd80-10-23audd2t13.flac:c2d63c1c3559853d1a6a44187016a318
gd80-10-23audd2t14.flac:71bab40b7b93994ba99546921250b318
gd80-10-23audd2t15.flac:936b6d6baa23f20e8de671a34f669c8d
gd80-10-23audd2t16.flac:c0cb02a4d74dad027943d93ebeffbdd1
gd80-10-23audd3t01.flac:3f12a43d516c1b7dce2f89ef4220940c
gd80-10-23audd3t02.flac:d8f449c80364421a4703227fc8512ff4
gd80-10-23audd3t03.flac:6108fc3c794e13a0eeaa163b72cd71dd
gd80-10-23audd3t04.flac:ed1a5f681eda61e69bd0db0b4fec72f7
gd80-10-23audd3t05.flac:4605d3b5b7e203f5bea7e6564a122ef2
gd80-10-23audd3t06.flac:0ee38c1bc0a87714795b1550bfefea48
gd80-10-23audd3t07.flac:4c3d8085060c0714fcb0af71855e3e13
gd80-10-23audd3t08.flac:df52d310b15b6dcaf13b28c5dd40e26c
gd80-10-23audd3t09.flac:b4695bc6d52249dcaa04357f0429dd6c
gd80-10-23audd3t10.flac:fffff5501a88166b147bf760207edf87
gd80-10-23audd3t11.flac:2efd687d808a5c9a255b0e63b2794a2a

Comments
Add Comment
Other Sources (comments)
AUD(Sony... (0) Recording by Mark Cohen:... (1) flac16; Recording... (0) flac24; (FOB)... (0) flac24; (FOB)... (0) flac16; Loge Dead... (0)
Date User Comment