Browse Collections Artists Sources   Search Dates

Add Show    List Management    Help


Grateful Dead 09/05/85
Red Rocks Amphitheatre, Morrison, CO
Comments Add Comment    Source Collectors    Add to Collection    Add to Want List    History
Source # 102034 Other Sources
Entered by dr.unclear
Checksums ffp , flac-md5
Disc Counts 2 / 3
Media Size
Date Circulated
Date Added
10/15/2009
10/14/2009
Source Summary flac16; SBD >> ? > CDR > EAC > SHN - pitch correction and patches by Kevin Tobin (update of source ID 12180)  
  Archive
Source Information - Download Text | Download Zip
Grateful Dead
9/05/85 - Thursday
Red Rocks Amphitheatre
Morrison, CO  

Patched and Pitch Corrected of soundboard

Set I:

d1t01  Cold Rain And Snow
d1t02  C C Rider
d1t03  Candyman  
d1t04  Beat It On Down The Line  
d1t05  Stagger Lee
d1t06  Me And My Uncle >
d1t07  Big River  
d1t08  Peggy-O  
d1t09  Let It Grow

Set II:

d2t01  crowd/tuning
d2t02  Scarlet Begonias >
d2t03  Fire On The Mountain  
d2t04  Estimated Prophet >
d2t05  Eyes Of The World >
d2t06  Drums >
d3t01  Space >
d3t02  Gimme Some Lovin' >
d3t03  Wharf Rat >
d3t04  Sugar Magnolia
Encore:
d3t05  Brokedown Palace

Audio Source Information
SBD (shnid=12180)

SBD >> ? > CDR > EAC > SHN
Notes:
-d1t08: cut of indeterminate length @ 3:13
-d2t09: patched a 1 min 26 second section of Wharf Rat (3:54 - 5:20) missing from the SBD source
with an audience source
-original SBD courtesy of Howard Weiner
-original source of Aud used for patch: a 1st gen analog cassette from a master taped
by Dan Michael, equipment unknown
-there are a few places, especially in Cold Rain & Snow, where the vocals drop out for a split second.
This was a PA issue, as the same d/os are present on the audience source.

AUD1 (shnid=79778)

Source: MAC: Sennheiser 441s (7-9 feet high) > Sony D5 > Maxell MX 90s
Location: Right of board
Tapers: Justin, Adam & Monica
Transfer: MAC > Nakamichi CD2 [azimuth adjusted] > rca/xlr > Lunatec V3 > coax > Audiophile 2496 > CEP 2.0 >Trade's Little Helper > FLAC16.
Master Audience Cassettes provided by Mark McCue. Transfer, edits, conversion & upload to bt.etree.org by Alex Ford 11/08/2006.

Notes:
- files encoded @ level 6. sector boundaries fixed & verified with trader's little helper.
- the encore was placed on disc 01 to fit the show on 2 discs.
- cd covers and McCue cassette collection photo are included with this fileset.
- d2t06 Drums 4:24-6:23 patched with Master Audience Cassette > DAT > CDR (shn id #11493).

AUD2 (shnid=27680)

Oade Brothers Recording
Transferred by Doug Oade, tracked by Darrin Sacks ([email protected])
Oade Master -- 90 X-Y Schoeps CMC441 & 10 ft spaced Schoeps CMC42s -> custom M118 x2 -> custom Oade mixer -> Oade MOD PCM-F1 @ first row behind board
Transfer: Master PCM > DAW (via SEKD Prodif) > Wav > cdwav > flac

AUD3 (no shnid)
low generation audio from vhs located somewhere in taper section.

---------------------------------------------------------
- Mixed by [email protected]
- FLAC conversion 15-OCT-2009
---------------------------------------------------------
Audio Patches:

1) Approx 3 minutes into Big River, 1 minute and 28.011 seconds were missing from the Soundboard (SBD) source and was filled in with a matrix audio from the Oade (AUD2) source and Video (AUD3) source.

2) At the beginning of the second set soundboard source, 11.787 seconds were missing from the soundboard (SBD) source and was filled in with audio from the Oade (AUD2) source. This was followed by 32.377 seconds were missing from the soundboard (SBD) source and was filled in with audio from the Video (AUD3) source.

3) Between Fire On The Mountain and Estimated Prophet, 2 minute and 14.412 seconds were missing from the Soundboard (SBD) source and was filled in with audio from the Oade (AUD2) source.

4) Approx 4 minutes into Wharf Rat, 1 minute and 24.796 seconds were missing from the Soundboard (SBD) source and was filled in with a matrix audio from the Oade (AUD2) source and Video (AUD3) source.

5) Between Sugar Magnolia and Brokedown Palace, 21.026 seconds were missing from the Soundboard (SBD) source and was filled in with audio from the Oade (AUD2) source.

6) Matrix\DTS were synced using the Vidoe as the reference. Both the McCue (AUD2) and the Oade (AUD1) were very similar to the video - the Oade was slightly slower (100.1%) and the McCue was slightly faster (99.7%). The soundboard was much faster (97.5%).

Brokedown House Production

    length     expanded size    cdr  WAVE problems  fmt   ratio  filename
     8:46.35       92868764 B   ---   --   -----    wav  1.0000  gd1985-09-05d1t01.wav
    11:47.67      124872428 B   ---   --   -----    wav  1.0000  gd1985-09-05d1t02.wav
     7:44.67       82007228 B   ---   --   -----    wav  1.0000  gd1985-09-05d1t03.wav
     5:13.52       55335548 B   ---   --   -----    wav  1.0000  gd1985-09-05d1t04.wav
     6:27.02       68271548 B   ---   --   -----    wav  1.0000  gd1985-09-05d1t05.wav
     2:57.18       31265180 B   ---   --   -----    wav  1.0000  gd1985-09-05d1t06.wav
     5:55.64       62772572 B   ---   --   -----    wav  1.0000  gd1985-09-05d1t07.wav
     6:42.01       70915196 B   ---   --   -----    wav  1.0000  gd1985-09-05d1t08.wav
    11:53.12      125801468 B   ---   --   -----    wav  1.0000  gd1985-09-05d1t09.wav
     1:05.53       11590700 B   ---   --   -----    wav  1.0000  gd1985-09-05d2t01.wav
     9:13.17       97589228 B   ---   --   -----    wav  1.0000  gd1985-09-05d2t02.wav
    13:08.48      139116140 B   ---   --   -----    wav  1.0000  gd1985-09-05d2t03.wav
    10:45.39      113869772 B   ---   --   -----    wav  1.0000  gd1985-09-05d2t04.wav
    11:01.25      116659244 B   ---   --   -----    wav  1.0000  gd1985-09-05d2t05.wav
     7:41.18       81362780 B   ---   --   -----    wav  1.0000  gd1985-09-05d2t06.wav
     5:39.58       59936060 B   ---   --   -----    wav  1.0000  gd1985-09-05d3t01.wav
     4:28.06       47289356 B   ---   --   -----    wav  1.0000  gd1985-09-05d3t02.wav
     8:59.66       95234876 B   ---   --   -----    wav  1.0000  gd1985-09-05d3t03.wav
     9:28.03      100202300 B   ---   --   -----    wav  1.0000  gd1985-09-05d3t04.wav
     5:41.10       60175964 B   ---   --   -----    wav  1.0000  gd1985-09-05d3t05.wav
   154:40.61     1637136352 B                            1.0000  (20 files)

Show Checksums
ffp
gd1985-09-05d1t01.flac:32851ec9863de76101419e85e3d4e301
gd1985-09-05d1t02.flac:fba9442030df38a0df9921d9a6d5fc8e
gd1985-09-05d1t03.flac:36b407e6c50273b72047662282ea4561
gd1985-09-05d1t04.flac:4c04eb71a6d1e190eb3c5e9067d4ace2
gd1985-09-05d1t05.flac:53a1997aebc2f9fb71881f4e71a415b4
gd1985-09-05d1t06.flac:36b1bdba15001f5661ae09fb311cec21
gd1985-09-05d1t07.flac:4027f23295b44bd5772d846ca89b3c05
gd1985-09-05d1t08.flac:bbf9460daf277b4f87775cf1925f34e2
gd1985-09-05d1t09.flac:19cadf84ec8dc1af27006642bd3b104f
gd1985-09-05d2t01.flac:2c005bc2cb248ac760eec502b3df23de
gd1985-09-05d2t02.flac:924dc34e321bc7211ba83b67deb7bae8
gd1985-09-05d2t03.flac:77aa5a4c8938a9d80f1158fcc3dfc88a
gd1985-09-05d2t04.flac:75dab44573c2d47d057130d951eef08f
gd1985-09-05d2t05.flac:cc539974a435f90f3e821af69311a3a8
gd1985-09-05d2t06.flac:8594aaff6a776f20554bee4645c1f4f8
gd1985-09-05d3t01.flac:76709d6b71c6a02f2db3a8982e9e41a3
gd1985-09-05d3t02.flac:6f407545b766e67437d8647ea7762a70
gd1985-09-05d3t03.flac:aa063a96c6f0fbc45a57a50408ff4b58
gd1985-09-05d3t04.flac:a02cf997d5cebb389e560bdb3717ca78
gd1985-09-05d3t05.flac:a4cf94b563962b620a1b66b79ef62bbe
flac-md5
5e92b6fd273c6914c688d27624da3c8e *gd1985-09-05d1t01.flac
354692edf046b257a0190c42f561ee4c *gd1985-09-05d1t02.flac
d528b7958395f7375becc413ad178a69 *gd1985-09-05d1t03.flac
781ddbac082c90977949dd79bdc4be37 *gd1985-09-05d1t04.flac
2eb42ed97e0f9c5af76174f3b558c064 *gd1985-09-05d1t05.flac
c8fee4e84905f82a371bf52eada17310 *gd1985-09-05d1t06.flac
8447d381fda4c2c1616e584cd5881375 *gd1985-09-05d1t07.flac
35fcd5b4345b43923b14fd173df1ac85 *gd1985-09-05d1t08.flac
fb6ce56570da483c5821265642a65fb1 *gd1985-09-05d1t09.flac
43e4374fea51f67b853c67269a2bfd1e *gd1985-09-05d2t01.flac
124b87bfb29c88ba3b77128b9943f818 *gd1985-09-05d2t02.flac
cc715dd9e85cc59f597377bcb681826d *gd1985-09-05d2t03.flac
59df5d2732cd8ac37830f2c22c58d9b1 *gd1985-09-05d2t04.flac
bb87023051a5fa7ff540b0bba667215a *gd1985-09-05d2t05.flac
e5d6a318f1087fa37dd550862121546e *gd1985-09-05d2t06.flac
fe549ba9a9a186f980234a61a656fcb9 *gd1985-09-05d3t01.flac
c20f6b24725fc2698fa10be4eb02ac06 *gd1985-09-05d3t02.flac
43fb5d5f7ef6608768ad85294d41a2d9 *gd1985-09-05d3t03.flac
06d690688cfd7cc2fa6081b0ade56b6b *gd1985-09-05d3t04.flac
a0e259cd98d0806c8bbb6c3654872ab4 *gd1985-09-05d3t05.flac

Comments
Add Comment
Other Sources (comments)
Master Audience Cassette >... (0) SBD >> ? > CDR > EAC > SHN;... (0) flac16 Oade Master,... (0) flac16; MAC:... (0) flac16; Matrix 4... (0) DTS-Audio-CD 5.1... (0) flac16; Nakamichi... (0) flac24; Master... (0) flac16; Master... (0) flac24; Set 1 from... (0) flac16; Set 1 from... (0) flac24; Patched &... (0) flac16; Patched &... (0) flac16; Matrix 2... (0) DTS-Audio-CD 5.1... (0) flac16/48kHz; 5.1... (0)
Date User Comment