Browse Collections Artists Sources   Search Dates

Add Show    List Management    Help


Grateful Dead 06/20/83
Merriweather Post Pavilion, Columbia, MD
Comments Add Comment    Source Collectors    Add to Collection    Add to Want List    History
Source # 102042 Other Sources
Entered by Matt Vernon
Checksums flac-md5 , ffp
Disc Counts 2 / 3
Media Size
Date Circulated
Date Added
10/15/2009
10/15/2009
Source Summary flac16; Nakamichi CM-300 (CP-1) x2 > Cassette Master (Sony TCD5M/Maxell UDXLII C-90); Cassette Master (Nakamichi DR-1) > Korg MR-1000 (1-bit/5.6MHz) > Audiogate (1-bit/5.6MHz > 16-bit/44.1KHz) > cdwav (edits); Recorded from Section Right Loge, Row J, Seat 208 by Bob Morris 
  Archive
Source Information - Download Text | Download Zip
Grateful Dead - June 20, 1983
Merriweather Post Pavillion - Columbia, Maryland
Nakamichi CM-300 (CP-1) x2 > Cassette Master
(Sony TCD5M/Maxell UDXLII C-90)

Cassette Master (Nakamichi DR-1) > Korg MR-1000 (1-bit/5.6MHz) >
Audiogate (1-bit/5.6MHz > 16-bit/44.1KHz) > cdwav (edits)

Disc One

Set 1:

01 tuning
02 New Minglewood Blues
03 They Love Each Other
04 Little Red Rooster
05 Peggy-O
06 My Brother Esau
07 Tennessee Jed
08 Hell in a Bucket
09 West L.A. Fadeaway
10 The Music Never Stopped

Disc Two

Set 2:

01 China Cat Sunflower ->
02 I Know You Rider
03 Samson & Delilah

Disc Three

2nd Set (cont)

01 He's Gone ->
02 Truckin' ->
03 Drums ->
04 Space ->
05 Little Star ->
06 The Other One ->
07 Wharf Rat ->
08 Sugar Magnolia

Encore:
09 tuning
10 It's All Over Now Baby Blue

Notes - Tape flip in Truckin' patched from 11:04-11:16.
Patch source: shnid 3926 Senn 441's via Soundforge 9.0.
Splice in Drums at 1:53 (Soundforge 9.0).
Recorded from Section Right Loge, Row J, Seat 208 by Bob Morris.
Thanks to Sam for help. Transferred, edited, patched by Bob M 9/09.
Flaced and shared by Chuck T./Crazyfingers


shntool 3.0.4
Copyright (C) 2000-2007 Jason Jordan

   length     expanded size    cdr  WAVE problems  fmt   ratio  filename
    5:39.57       59933708 B   ---   --   ---xx   flac  0.6463  gd83-06-21d1t01.flac
    4:45.41       50370476 B   ---   --   ---xx   flac  0.6264  gd83-06-21d1t02.flac
    4:06.62       43540268 B   ---   --   ---xx   flac  0.6198  gd83-06-21d1t03.flac
    3:04.52       32579948 B   ---   --   ---xx   flac  0.6274  gd83-06-21d1t04.flac
    6:32.71       69315836 B   ---   --   ---xx   flac  0.6176  gd83-06-21d1t05.flac
    5:56.16       62836076 B   ---   --   ---xx   flac  0.6340  gd83-06-21d1t06.flac
    6:18.19       66723932 B   ---   --   ---xx   flac  0.6482  gd83-06-21d1t07.flac
    9:01.32       95507708 B   ---   --   ---xx   flac  0.6400  gd83-06-21d1t08.flac
    0:17.13        3029420 B   ---   --   ---xx   flac  0.4992  gd83-06-21d1t09.flac
    6:53.62       72999068 B   ---   --   ---xx   flac  0.6114  gd83-06-21d1t10.flac
    9:13.66       97704476 B   ---   --   ---xx   flac  0.5976  gd83-06-21d1t11.flac
    4:23.04       46402652 B   ---   --   ---xx   flac  0.6498  gd83-06-21d1t12.flac
    6:37.40       70124924 B   ---   --   ---xx   flac  0.6546  gd83-06-21d2t01.flac
    8:22.20       88599884 B   ---   --   ---xx   flac  0.6488  gd83-06-21d2t02.flac
    0:20.58        3664460 B   ---   --   ---xx   flac  0.5206  gd83-06-21d2t03.flac
   11:32.58      122205260 B   ---   --   ---xx   flac  0.6182  gd83-06-21d2t04.flac
   11:47.10      124738364 B   ---   --   ---xx   flac  0.6251  gd83-06-21d2t05.flac
   12:43.28      134659100 B   ---   --   ---xx   flac  0.6365  gd83-06-21d2t06.flac
   10:26.17      110466428 B   ---   --   ---xx   flac  0.5554  gd83-06-21d2t07.flac
   11:44.10      124209164 B   ---   --   ---xx   flac  0.5185  gd83-06-21d3t01.flac
    8:11.01       86614796 B   ---   --   ---xx   flac  0.6200  gd83-06-21d3t02.flac
    9:13.73       97720940 B   ---   --   ---xx   flac  0.6083  gd83-06-21d3t03.flac
    3:44.51       39633596 B   ---   --   ---xx   flac  0.6444  gd83-06-21d3t04.flac
   10:25.61      110393516 B   ---   --   ---xx   flac  0.6662  gd83-06-21d3t05.flac
    5:13.34       55293212 B   ---   --   ---xx   flac  0.6430  gd83-06-21d3t06.flac
  176:36.56     1869267212 B                            0.6192  (25 files)
Show Checksums
flac-md5
2205cbcc7a6dd1151a0758e4c0d3a729 *gd83-06-20d1t01.flac
c802811645d0f10542b5b21153b58e16 *gd83-06-20d1t02.flac
46e6efffdb47d35e9c05349bb14d7ddd *gd83-06-20d1t03.flac
f2f1ad82efa484de067473452680aad8 *gd83-06-20d1t04.flac
ba7ff0e5d13ecec5b70c2c31f1db9ecd *gd83-06-20d1t05.flac
e6bd5e4a208280f0b5f5313819c1654e *gd83-06-20d1t06.flac
0b71e5849534f4d6a4dfd3369bbdb5bd *gd83-06-20d1t07.flac
e73b6df84fec157b29189747a4632ec2 *gd83-06-20d1t08.flac
fbdb585143f7aeed5b34995daaa8c838 *gd83-06-20d1t09.flac
e7dce55249501d78cb99e93dfa25139b *gd83-06-20d1t10.flac
425d6a6b553a514abba3e0670138c91a *gd83-06-20d2t01.flac
4e56a1c292f7dff0433ea605c28f09ae *gd83-06-20d2t02.flac
f941f8e9f672e1d4e4fb1ce82a92e965 *gd83-06-20d2t03.flac
cae469bd71629ffe98c08d1be8c6254a *gd83-06-20d3t01.flac
e83e224241769ec1618735555fc12f1d *gd83-06-20d3t02.flac
ee03c600a5f649319ed526920afb991a *gd83-06-20d3t03.flac
244a4113a1408e6e32920eecc58fbc75 *gd83-06-20d3t04.flac
6bd0c7e4fdbbf16eaf3ce6413b7336bf *gd83-06-20d3t05.flac
1a0506584cc0f3055d1cd3164c7c3c65 *gd83-06-20d3t06.flac
69d597d5a2548f13a16faca15fc233cc *gd83-06-20d3t07.flac
0a32462985c0a82b8aa8370a8c4d1edf *gd83-06-20d3t08.flac
a91d582afae9a009539f015af53a0972 *gd83-06-20d3t09.flac
bb58b45a35b820ca302a13aecd364d43 *gd83-06-20d3t10.flac
ffp
gd83-06-20d1t01.flac:3270b53ef616ec007ac6a44bfdb0e283
gd83-06-20d1t02.flac:497a2083decb741b0c4e3321684ae3ec
gd83-06-20d1t03.flac:b7317188e6008fd1ab3924fd9be5838f
gd83-06-20d1t04.flac:5d3b6bda6ad0fa502d7e7f3828864435
gd83-06-20d1t05.flac:dccc992c2f17e8bdd7309b717060f8ba
gd83-06-20d1t06.flac:a174fbc95136476dc495158390e23676
gd83-06-20d1t07.flac:dd30e94de9c0f3f304a1cf47a12b93f2
gd83-06-20d1t08.flac:8fa1749468ae252a1f107ddd208354dd
gd83-06-20d1t09.flac:38baa1bc6b80325060bed237b8679d72
gd83-06-20d1t10.flac:1c4b1fba84c4598c9a38a822a657137b
gd83-06-20d2t01.flac:a278ecfee965748c63d84d368bd63400
gd83-06-20d2t02.flac:59456dfcad361d933d3daa6451ebefaf
gd83-06-20d2t03.flac:347d13d882c6d44200b6b1b3373407bb
gd83-06-20d3t01.flac:3cd7ea92035c0689d2cccd304f71ba4e
gd83-06-20d3t02.flac:e6297662993fb6ac4f5afdb307dd641f
gd83-06-20d3t03.flac:40bce01e3479b5a286f719940a224447
gd83-06-20d3t04.flac:4d8360c09038df7bde8f65b9e76a4da5
gd83-06-20d3t05.flac:6e7df754f834915a72d333e831fc4d7b
gd83-06-20d3t06.flac:b342b1ffe96a707a5983093a5675d9ed
gd83-06-20d3t07.flac:f05758d52b17cfa4c0cca6896fc3c614
gd83-06-20d3t08.flac:95b0a5b2cf89a8aef963505ec59b03ee
gd83-06-20d3t09.flac:5c63cd789e7182d0f2c67bea790d99c7
gd83-06-20d3t10.flac:dfaebfeea6b1adc4d6b9e025fdb81c18

Comments
Add Comment
Other Sources (comments)
set 2; Sen. 441 -> D5 ->... (0) Set 1 and Set 2 up to Drums... (8) flac16;... (0) flac16; Source:... (0) flac16; Source: fob... (0) flac16; source: 2... (0) flac24; source: (3)... (0) flac24; source: nak... (0)
Date User Comment