Browse Collections Artists Sources   Search Dates

Add Show    List Management    Help


Grateful Dead 04/23/83
Veterans' Memorial Coliseum, New Haven, CT
Comments Add Comment    Source Collectors    Add to Collection    Add to Want List    History
Source # 102044 Other Sources
Entered by Matt Vernon
Checksums flac-md5 , ffp
Disc Counts 2 / 3
Media Size
Date Circulated
Date Added
10/15/2009
10/15/2009
Source Summary flac16; Nakamichi shotgun x2 (CM-300?) > Cassette Master (Sony TCD5M/Maxell UDXLII C-90); Cassette Master (Nakamichi DR-1) > Korg MR-1000 (1-bit/5.6MHz) > Audiogate (1-bit/5.6MHz > 16-bit/44.1KHz) > cdwav (edits); Recorded behind the board by Bob Morris 
  Archive
Source Information - Download Text | Download Zip
Grateful Dead - April 23, 1983
New Haven Coliseum - New Haven, Connecticut

Nakamichi shotgun x2 (CM-300?) > Cassette Master
(Sony TCD5M/Maxell UDXLII C-90)

Cassette Master (Nakamichi DR-1) > Korg MR-1000 (1-bit/5.6MHz) >
Audiogate (1-bit/5.6MHz > 16-bit/44.1KHz) > cdwav (edits)

Disc One

Set 1:

01 tuning
02 Alabama Getaway ->
03 Greatest Story Ever Told
04 Candyman
05 New Minglewood Blues
06 Tennessee Jed
07 Lazy Lightnin' ->
08 Supplication
09 Peggy-O
10 Far From Me ->
11 The Music Never Stopped

Disc Two

Set 2:

01 tuning
02 Scarlet Begonias ->
03 Fire on the Mountain ->
04 Lost Sailor ->
05 St of Circumstance ->
06 Drums ->

Disc Three

01 Space ->
02 The Other One ->
03 Wharf Rat ->
04 Throwing Stones ->
05 Not Fade Away

Encore
06 tuning
07 One More Saturday Night ->
08 Brokedown Palace

Notes - Tape flip in Drums spliced at 2:35.
Throwing Stones patched at 0:36-0:44 & 6:21-6:42.
Patch source: shnid 88482 Senn 421's via Soundforge 9.0.
Recorded behind the board by Bob Morris -- thanks to Sam for help.
Transferred, edited, patched by Bob M 9/09.
Flaced and shared by Chuck T./Crazyfingers

shntool 3.0.4
Copyright (C) 2000-2007 Jason Jordan

   length     expanded size    cdr  WAVE problems  fmt   ratio  filename
    1:23.21       14690636 B   ---   --   ---xx   flac  0.5623  gd83-04-23d1t01.flac
    5:12.31       55109756 B   ---   --   ---xx   flac  0.6040  gd83-04-23d1t02.flac
    5:00.48       53032940 B   ---   --   ---xx   flac  0.5834  gd83-04-23d1t03.flac
    6:44.05       71277404 B   ---   --   ---xx   flac  0.5776  gd83-04-23d1t04.flac
    8:22.48       88665740 B   ---   --   ---xx   flac  0.5953  gd83-04-23d1t05.flac
    9:43.73      103012940 B   ---   --   ---xx   flac  0.5724  gd83-04-23d1t06.flac
    3:33.23       37627340 B   ---   --   ---xx   flac  0.6062  gd83-04-23d1t07.flac
    6:09.49       65206892 B   ---   --   ---xx   flac  0.6093  gd83-04-23d1t08.flac
    8:22.74       88726892 B   ---   --   ---xx   flac  0.5471  gd83-04-23d1t09.flac
    4:15.65       45134924 B   ---   --   ---xx   flac  0.6063  gd83-04-23d1t10.flac
    8:33.33       90570860 B   ---   --   ---xx   flac  0.6048  gd83-04-23d1t11.flac
    0:30.36        5376716 B   ---   --   ---xx   flac  0.4758  gd83-04-23d2t01.flac
   12:37.16      133572476 B   ---   --   ---xx   flac  0.5929  gd83-04-23d2t02.flac
   13:36.01      143944796 B   ---   --   ---xx   flac  0.5845  gd83-04-23d2t03.flac
    7:13.50       76498844 B   ---   --   ---xx   flac  0.5452  gd83-04-23d2t04.flac
    7:13.59       76520012 B   ---   --   ---xx   flac  0.6041  gd83-04-23d2t05.flac
    7:24.66       78476876 B   ---   --   ---xx   flac  0.5387  gd83-04-23d2t06.flac
   12:24.39      131333372 B   ---   --   ---xx   flac  0.4978  gd83-04-23d3t01.flac
   13:26.38      142267820 B   ---   --   ---xx   flac  0.5861  gd83-04-23d3t02.flac
    9:08.15       96702524 B   ---   --   ---xx   flac  0.5744  gd83-04-23d3t03.flac
    9:04.69       96123932 B   ---   --   ---xx   flac  0.5848  gd83-04-23d3t04.flac
    8:30.73       90135740 B   ---   --   ---xx   flac  0.5656  gd83-04-23d3t05.flac
    1:41.18       17858780 B   ---   --   ---xx   flac  0.5330  gd83-04-23d3t06.flac
    4:20.62       46009868 B   ---   --   ---xx   flac  0.6043  gd83-04-23d3t07.flac
    5:17.33       55996460 B   ---   --   ---xx   flac  0.5592  gd83-04-23d3t08.flac
  179:52.70     1903874540 B                            0.5751  (25 files)
Show Checksums
flac-md5
2ae8777a9b77ad6c9b8a91c892ad37e5 *gd83-04-23d1t01.flac
4d23b17daee2e72a593039a1dc5b6285 *gd83-04-23d1t02.flac
5826c565102ca0edc556d40e63341725 *gd83-04-23d1t03.flac
7a6bacdddd44b9b3dac8777d01084b33 *gd83-04-23d1t04.flac
8aba55f217aff350759410a9409cea67 *gd83-04-23d1t05.flac
dbcce42a16fa6bff9ce989d64ee4df96 *gd83-04-23d1t06.flac
0f03c1b383e4be431422af800ad1beb8 *gd83-04-23d1t07.flac
b3bacc7d59e3277c47d871a19121cb43 *gd83-04-23d1t08.flac
d6181097c9b3d90cc5290b788bdca354 *gd83-04-23d1t09.flac
b9a665444def036f93f94028c71be3c4 *gd83-04-23d1t10.flac
45a68ec9659a10323ea3b708b5f19adf *gd83-04-23d1t11.flac
56c4012704ffa01828f14be62dff6403 *gd83-04-23d2t01.flac
a103247604cdc385c375bb3019371ed2 *gd83-04-23d2t02.flac
dd4f8deecdb89c47588c1089cad665bc *gd83-04-23d2t03.flac
9f00db896da2be3e7014efe00b25bfca *gd83-04-23d2t04.flac
685e4646f934180f466ecf6afbda50e8 *gd83-04-23d2t05.flac
5d40f5673deb2a4159dd1aaf829065a1 *gd83-04-23d2t06.flac
609b28090ca43eb5487940a9a3e5e19d *gd83-04-23d3t01.flac
bf9ca56f11af8b587c5e3305e8579336 *gd83-04-23d3t02.flac
575695a75ffbcbb6981677b14f8ba6d6 *gd83-04-23d3t03.flac
890735e701275759624cb68cf667dd6e *gd83-04-23d3t04.flac
01931627ae34d3ec8102138f065a9a0b *gd83-04-23d3t05.flac
5c062134b962e5014efab4df1c1291fa *gd83-04-23d3t06.flac
e0c28eef4bf0d5b8fac711106ac5aafc *gd83-04-23d3t07.flac
5c12d6773563e5d70e57e47f86c1a73b *gd83-04-23d3t08.flac
ffp
gd83-04-23d1t01.flac:867165713e082126839c56a604336608
gd83-04-23d1t02.flac:9d1e3e71306e5643cd02989cf927afb1
gd83-04-23d1t03.flac:9b759d5fc75593541b66d32dd68cc8a7
gd83-04-23d1t04.flac:f9d25b2e9a0b4d26f0a69c49d95417e6
gd83-04-23d1t05.flac:8b2895ba03e3e26b7484850493663051
gd83-04-23d1t06.flac:120360de44393c2a6337eb4072e0c0b4
gd83-04-23d1t07.flac:6deeebbf9fa8d83a5d88091fdb50f64e
gd83-04-23d1t08.flac:3cad9244035e93662cba0f73d624a1ef
gd83-04-23d1t09.flac:c0daff570a5d97945503ae7f9ee0c121
gd83-04-23d1t10.flac:ab7528434191eec8e32f86440ac5c273
gd83-04-23d1t11.flac:6440176510fb0492e73b581c66806bcd
gd83-04-23d2t01.flac:414a202b284f886a6d3b9b08a40820a2
gd83-04-23d2t02.flac:b0b5f6f2ad540ccf700af982744fc180
gd83-04-23d2t03.flac:692ca6cc3f3b3ead1517acbf81e03905
gd83-04-23d2t04.flac:29052f65bb784ba8a05726ea612c4b0a
gd83-04-23d2t05.flac:b1401f3f89399a37e50b7dbb814811fe
gd83-04-23d2t06.flac:abd8c1628579dc89b578d91930eb2556
gd83-04-23d3t01.flac:0b8449bf9b4677b329eb4997d87acc63
gd83-04-23d3t02.flac:db88212b55ad0e6d2068fd3fcd189ebb
gd83-04-23d3t03.flac:0a8c424223dbbc3ee8c22a1ef484e028
gd83-04-23d3t04.flac:4d87f39433939e076088a71a3c75d8ea
gd83-04-23d3t05.flac:c14462977722505d07ed37851f1f1b14
gd83-04-23d3t06.flac:227839df49f057d3266c225089941163
gd83-04-23d3t07.flac:2aa3ae92bbe761286df65fe66276a14a
gd83-04-23d3t08.flac:0d53e1a0ff378db9d1084a7238337928

Comments
Add Comment
Other Sources (comments)
FOB-Sennheiser 421> Master... (0) flac16; SBD ->... (1) flac16;... (0) flac16;... (0) flac16; Source: 2... (1) flac24; AUD: 2x... (1) flac16; AUD: 2x... (1) flac16; Set 2... (0) flac24; Set 2... (0) flac24; Updated... (0) flac16; Set 2 only... (1) flac16; source: aud... (0) flac24; source: aud... (0) flac16/44.1 First... (0) flac24/48 First Gen... (0)
Date User Comment