Browse Collections Artists Sources   Search Dates

Add Show    List Management    Help


Grateful Dead 04/22/83
Veterans' Memorial Coliseum, New Haven, CT
Comments Add Comment    Source Collectors    Add to Collection    Add to Want List    History
Source # 102045 Other Sources
Entered by Matt Vernon
Checksums flac-md5 , ffp
Disc Counts 2 / 3
Media Size
Date Circulated
Date Added
10/15/2009
10/15/2009
Source Summary flac16; Nakamichi CM-300 (CP-1) x2 > Cassette Master (Sony TCD5M/Maxell UDXLII C-90); Cassette Master (Nakamichi DR-1) > Korg MR-1000 (1-bit/5.6MHz) > Audiogate (1-bit/5.6MHz > 16-bit/44.1KHz) > cdwav (edits); Recorded by Bob Morris 
  Archive
Source Information - Download Text | Download Zip
Grateful Dead - April 22, 1983
New Haven Coliseum - New Haven, Connecticut

Nakamichi CM-300 (CP-1) x2 > Cassette Master
(Sony TCD5M/Maxell UDXLII C-90)

Cassette Master (Nakamichi DR-1) > Korg MR-1000 (1-bit/5.6MHz) >
Audiogate (1-bit/5.6MHz > 16-bit/44.1KHz) > cdwav (edits)

Disc One

Set 1:

01 tuning
02 Feel Like A Stranger
03 Bird Song
04 C.C. Rider
05 Row Jimmy
06 tuning
07 Mama Tried ->
08 Mexicali Blues
09 Cold Rain & Snow
10 My Brother Esau ->
11 Deal

Disc Two

Set 2:

01 tuning ->
02 Help on the Way ->
03 Slipknot! ->
04 Franklin's Tower ->
05 Samson & Delilah

Disc Three

01 tuning
02 Ship of Fools ->
03 Man Smart, Woman Smarter ->
04 jam ->
05 Drums ->
06 Space ->
07 Truckin' ->
08 Spoonful ->
09 Stella Blue ->
10 Around & Around ->
11 Good Lovin'

Encore
12 tuning
13 It's All Over Now Baby Blue

Notes - Tape flip between Drums and Space.
Patched w/ shnid 21442 Nak 700s using Soundforge 9.0:
jam (0:03-0:20); drums (0:59-2:11)
Recorded by Bob Morris -- thanks to Sam for help.
Transferred, edited, patched by Bob M 9/09.
Flaced and shared by Chuck T./Crazyfingers


shntool 3.0.4
Copyright (C) 2000-2007 Jason Jordan

   length     expanded size    cdr  WAVE problems  fmt   ratio  filename
    5:49.73       61735340 B   ---   --   ---xx   flac  0.4951  gd83-04-22d1t01.flac
    9:11.37       97283468 B   ---   --   ---xx   flac  0.5744  gd83-04-22d1t02.flac
   10:50.19      114704732 B   ---   --   ---xx   flac  0.5591  gd83-04-22d1t03.flac
    9:18.29       98499452 B   ---   --   ---xx   flac  0.5612  gd83-04-22d1t04.flac
   10:12.58      108093260 B   ---   --   ---xx   flac  0.5605  gd83-04-22d1t05.flac
    0:45.49        8053292 B   ---   --   ---xx   flac  0.4848  gd83-04-22d1t06.flac
    3:20.00       35280044 B   ---   --   ---xx   flac  0.5878  gd83-04-22d1t07.flac
    5:18.28       56161100 B   ---   --   ---xx   flac  0.5945  gd83-04-22d1t08.flac
    6:11.65       65597324 B   ---   --   ---xx   flac  0.5969  gd83-04-22d1t09.flac
    6:03.47       64143788 B   ---   --   ---xx   flac  0.5908  gd83-04-22d1t10.flac
    8:46.67       92944028 B   ---   --   ---xx   flac  0.6029  gd83-04-22d1t11.flac
    0:43.46        7693436 B   ---   --   ---xx   flac  0.5058  gd83-04-22d2t01.flac
    3:34.32       37824908 B   ---   --   ---xx   flac  0.5719  gd83-04-22d2t02.flac
    5:22.08       56819660 B   ---   --   ---xx   flac  0.5872  gd83-04-22d2t03.flac
   11:26.65      121163324 B   ---   --   ---xx   flac  0.5968  gd83-04-22d2t04.flac
    9:00.28       95321900 B   ---   --   ---xx   flac  0.5961  gd83-04-22d2t05.flac
    1:19.07       13952108 B   ---   --   ---xx   flac  0.4970  gd83-04-22d3t01.flac
    7:04.29       74861852 B   ---   --   ---xx   flac  0.5635  gd83-04-22d3t02.flac
    6:41.44       70839932 B   ---   --   ---xx   flac  0.6083  gd83-04-22d3t03.flac
    5:07.61       54298316 B   ---   --   ---xx   flac  0.5474  gd83-04-22d3t04.flac
    4:47.44       50730332 B   ---   --   ---xx   flac  0.5346  gd83-04-22d3t05.flac
   12:38.26      133772396 B   ---   --   ---xx   flac  0.5081  gd83-04-22d3t06.flac
    6:33.71       69492236 B   ---   --   ---xx   flac  0.6073  gd83-04-22d3t07.flac
    2:22.59       25187612 B   ---   --   ---xx   flac  0.5716  gd83-04-22d3t08.flac
    9:15.46       98010236 B   ---   --   ---xx   flac  0.5514  gd83-04-22d3t09.flac
    3:41.28       39050300 B   ---   --   ---xx   flac  0.5800  gd83-04-22d3t10.flac
    8:42.11       92106716 B   ---   --   ---xx   flac  0.5983  gd83-04-22d3t11.flac
    0:23.31        4130156 B   ---   --   ---xx   flac  0.5265  gd83-04-22d3t12.flac
    7:09.53       75800300 B   ---   --   ---xx   flac  0.5788  gd83-04-22d3t13.flac
  181:44.36     1923551548 B                            0.5703  (29 files)
Show Checksums
flac-md5
b1d6cbb28aa07378b3ebb280b4c4dc2b *gd83-04-22d1t01.flac
33ddea3f211a8d6f6f8fc8f97ad1b19f *gd83-04-22d1t02.flac
f21126ec64e4c13fcbb147dec6d9cb6b *gd83-04-22d1t03.flac
c5dc029d22547399c330c7cd10167bec *gd83-04-22d1t04.flac
c7969e7c369d4e5ac3cd937f0c139931 *gd83-04-22d1t05.flac
c94235ad914e63e25a63a6be5b0c44aa *gd83-04-22d1t06.flac
609c57553cb6d66252f7266648991edc *gd83-04-22d1t07.flac
4e1c294577ba136efc170a579d2faae1 *gd83-04-22d1t08.flac
1e71d3fdbcb17335e7a344da7d02927d *gd83-04-22d1t09.flac
e308589274fbac3b5217302111653bc7 *gd83-04-22d1t10.flac
de63df3452fb97d5c71c3790bbaec1ef *gd83-04-22d1t11.flac
60a6142dfeddabf021bb61cf13509904 *gd83-04-22d2t01.flac
068a0b64798a536b083838bb995a1171 *gd83-04-22d2t02.flac
19ddb2c8328121f1e5554870e6583f8f *gd83-04-22d2t03.flac
bdd424842463c727ad8dfeeced140d4e *gd83-04-22d2t04.flac
e8c2def075aee49476d6118b092627dc *gd83-04-22d2t05.flac
78f444fdd8a5cc0fec3b8b67d63db515 *gd83-04-22d3t01.flac
3d21003011218eeabbc9c705d60a47c1 *gd83-04-22d3t02.flac
56dda58f23a6220c933244a8db5bb509 *gd83-04-22d3t03.flac
8cf7fb03157bb55b00543991b703ac88 *gd83-04-22d3t04.flac
af98554308a680b1776407771b8ce779 *gd83-04-22d3t05.flac
a89595ddd76fe9f96c1c5eafd8e8c7d0 *gd83-04-22d3t06.flac
3ce882c6d1fbf2029be9aad3357dc6b8 *gd83-04-22d3t07.flac
b4332d046cd10a25a1fb81e7284406a9 *gd83-04-22d3t08.flac
40bc27a59afb3a7a91d78aed6fd2d1ab *gd83-04-22d3t09.flac
11972feb172836de3883b23d79749af8 *gd83-04-22d3t10.flac
01bfe2eaf55c52fe409a9e048f19504c *gd83-04-22d3t11.flac
eddad19c66328064338c596c9373b54e *gd83-04-22d3t12.flac
ee5053fce69483f2b3e783480bc5e30a *gd83-04-22d3t13.flac
ffp
gd83-04-22d1t01.flac:fbe14f04d9428fa3e3d5668435262b06
gd83-04-22d1t02.flac:e7c1b58342f6fd0963025cdf709607db
gd83-04-22d1t03.flac:730d54be8523436abce8b31e88e6171d
gd83-04-22d1t04.flac:173408b5ff6b34ebf0b5989480e1e6e0
gd83-04-22d1t05.flac:e198d26b12ed20f8ba956e709fdc0d74
gd83-04-22d1t06.flac:7fdab2d579b1cffcc2515f752b979fc3
gd83-04-22d1t07.flac:ed9008ff7ef0e52a797271d1f68677d9
gd83-04-22d1t08.flac:ddd1b8349db664377e40449a61d10160
gd83-04-22d1t09.flac:19b49e4e45d3a5359c0c0d468037b28c
gd83-04-22d1t10.flac:84fdc542a6080dd9f07dde3adb354679
gd83-04-22d1t11.flac:7d65ea564ce92af9cd1a221ae6d4ff16
gd83-04-22d2t01.flac:b98adcc0b5f09466659e66dddbd0cd73
gd83-04-22d2t02.flac:91b9ba4868a1de0988ebc7ad98bb27a3
gd83-04-22d2t03.flac:867b919cedd6bee3561f8be9562aeb56
gd83-04-22d2t04.flac:44da20da83330a69b702d94c50c787f7
gd83-04-22d2t05.flac:a2f220aeb177ad645a8c30f4ea6b9385
gd83-04-22d3t01.flac:1337365af57984467830d1ca8f91bd90
gd83-04-22d3t02.flac:b3eb52f8f150ac902ae76ecebbba6f6d
gd83-04-22d3t03.flac:60f47d0d3fdb1fab8b255b2c3a58bb3e
gd83-04-22d3t04.flac:5d735bf008c7901ebdb2b0f2cae842b2
gd83-04-22d3t05.flac:78d23335884ef8551b776dac58fbf251
gd83-04-22d3t06.flac:ca041594838afb928144aa068435515e
gd83-04-22d3t07.flac:ff1923c0d2e31f03e47f3730777219d2
gd83-04-22d3t08.flac:8e5152345170aeff2cb8d5a9136896f7
gd83-04-22d3t09.flac:bba78566c3e33ae22e6e7866d71ff4b7
gd83-04-22d3t10.flac:b471044fda46a0401cf1b49ab30a94b4
gd83-04-22d3t11.flac:f2c9f887e8c7d73b16555482d0ec1a3c
gd83-04-22d3t12.flac:7c2fed08fe78c1dddba2f1931b67521a
gd83-04-22d3t13.flac:ede46aee9e647fc338638fb45ecfee10

Comments
Add Comment
Other Sources (comments)
FOB-Sennheiser 421> Master... (1) Barry Glassberg FOB AUDMC... (0) flac16;... (0) flac16; Source: 2... (0) flac24; AUD: 2x... (1) flac16; AUD: 2x... (1) flac24; Updated... (0) flac16; 1st Gen AUD... (0) flac16; source: aud... (0) flac24; source: aud... (0) flac16/44.1 First... (0) flac24/48 First... (0)
Date User Comment