Browse Collections Artists Sources   Search Dates

Add Show    List Management    Help


Grateful Dead 09/07/83
Red Rocks Amphitheatre, Morrison, CO
Comments Add Comment    Source Collectors    Add to Collection    Add to Want List    History
Source # 102052 Other Sources
Entered by Matt Vernon
Checksums ffp , flac-md5
Disc Counts 2 / 3
Media Size
Date Circulated
Date Added
10/15/2009
10/15/2009
Source Summary flac16; Nakamichi CM-300 (CP-1) x2 > Cassette Master (Sony TCD5M/Maxell UDXLII C-90); Cassette Master (Nakamichi DR-1) > Korg MR-1000 (1-bit/5.6MHz) > Audiogate (1-bit/5.6MHz > 16-bit/44.1KHz) > cdwav (edits); Recorded by Bob Morris 
  Archive
Source Information - Download Text | Download Zip
Grateful Dead - September 7, 1983
Red Rocks Park - Morrison, Colorado
Nakamichi CM-300 (CP-1) x2 > Cassette Master
(Sony TCD5M/Maxell UDXLII C-90)

Cassette Master (Nakamichi DR-1) > Korg MR-1000 (1-bit/5.6MHz) >
Audiogate (1-bit/5.6MHz > 16-bit/44.1KHz) > cdwav (edits)

Disc One

Set 1:

01 tuning
02 Jack Straw
03 Candyman
04 Little Red Rooster
05 Loser
06 My Brother Esau
07 West L.A. Fadeaway
08 Cassidy
09 China Cat Sunflower ->
10 I Know You Rider

Disc Two

Set 2:

01 tuning
02 I Need A Miracle ->
03 Bertha
04 Samson & Delilah

Disc Three

2nd Set (cont)

01 He's Gone ->
02 Drums ->
03 Space ->
04 Truckin' ->
05 Stella Blue ->
06 Sugar Magnolia

Encore:
07 tuning
08 U.S. Blues

Notes - Tape flip between Drums and Space.
Recorded by Bob Morris -- thanks to Sam for help.
Transferred, edited by Bob M 9/09.
Flaced and shared by Chuck T./Crazyfingers


shntool 3.0.4
Copyright (C) 2000-2007 Jason Jordan

   length     expanded size    cdr  WAVE problems  fmt   ratio  filename
    1:16.57       13540508 B   ---   --   ---xx   flac  0.5145  gd83-09-07d1t01.flac
    5:37.02       59451548 B   ---   --   ---xx   flac  0.5626  gd83-09-07d1t02.flac
    6:17.20       66549884 B   ---   --   ---xx   flac  0.5543  gd83-09-07d1t03.flac
    8:41.13       91935020 B   ---   --   ---xx   flac  0.5658  gd83-09-07d1t04.flac
    7:10.22       75903788 B   ---   --   ---xx   flac  0.5478  gd83-09-07d1t05.flac
    5:11.16       54898076 B   ---   --   ---xx   flac  0.5497  gd83-09-07d1t06.flac
    9:12.24       97429292 B   ---   --   ---xx   flac  0.5510  gd83-09-07d1t07.flac
    6:01.65       63833324 B   ---   --   ---xx   flac  0.5591  gd83-09-07d1t08.flac
    6:45.52       71564348 B   ---   --   ---xx   flac  0.5607  gd83-09-07d1t09.flac
    5:54.36       62530316 B   ---   --   ---xx   flac  0.5793  gd83-09-07d1t10.flac
    0:54.30        9596204 B   ---   --   ---xx   flac  0.4749  gd83-09-07d2t01.flac
    3:17.00       34750844 B   ---   --   ---xx   flac  0.5523  gd83-09-07d2t02.flac
    7:30.17       79420028 B   ---   --   ---xx   flac  0.5684  gd83-09-07d2t03.flac
    6:52.15       72712124 B   ---   --   ---xx   flac  0.5475  gd83-09-07d2t04.flac
   12:44.10      134793164 B   ---   --   ---xx   flac  0.4998  gd83-09-07d3t01.flac
    6:01.42       63779228 B   ---   --   ---xx   flac  0.5068  gd83-09-07d3t02.flac
   19:01.74      201446492 B   ---   --   ---xx   flac  0.4731  gd83-09-07d3t03.flac
    7:35.73       80433740 B   ---   --   ---xx   flac  0.5477  gd83-09-07d3t04.flac
    7:54.05       83625404 B   ---   --   ---xx   flac  0.4952  gd83-09-07d3t05.flac
    8:13.31       87038156 B   ---   --   ---xx   flac  0.5720  gd83-09-07d3t06.flac
    0:21.42        3803228 B   ---   --   ---xx   flac  0.4745  gd83-09-07d3t07.flac
    5:44.39       60773372 B   ---   --   ---xx   flac  0.5640  gd83-09-07d3t08.flac
  148:19.10     1569808088 B                            0.5363  (22 files)
Show Checksums
ffp
gd83-09-07d1t01.flac:738b709e99d0591af449cd331fef58cf
gd83-09-07d1t02.flac:8a8762c152f46b2c47471fc82a8629c8
gd83-09-07d1t03.flac:d0431a187cd5a90c02d580f0dc27362a
gd83-09-07d1t04.flac:3687a7abdbe6b29808472f5d9ac8e6a3
gd83-09-07d1t05.flac:2d6e2d58c8f94629e5ebd732ddb08718
gd83-09-07d1t06.flac:601fd268229f7dcc9309105ddf795683
gd83-09-07d1t07.flac:75d321d9e424fbf6836f9ee126653b0c
gd83-09-07d1t08.flac:22946feb1de8a51bc5151bf1f8a32ca1
gd83-09-07d1t09.flac:f3b975b258fd05bf4aeda340bd1d306c
gd83-09-07d1t10.flac:f4ef1fa1f37e2ae4560e05454e654b98
gd83-09-07d2t01.flac:f37cf66278e621598fea3dd3f94e1f00
gd83-09-07d2t02.flac:69ebb5cfbb8cc0fd6974522c82eaedf8
gd83-09-07d2t03.flac:59d70266fcdb1e0933708120a83a9fbb
gd83-09-07d2t04.flac:565749552c87de54217996a5d9bbefa8
gd83-09-07d3t01.flac:2849e3a72f7fb53d1a4f87fcd82c0682
gd83-09-07d3t02.flac:3b1077dde653be36b8fc8b6ed5fbcc27
gd83-09-07d3t03.flac:0a63a4c8946f69d84139ea09ebafa640
gd83-09-07d3t04.flac:92c9c00c99684dd386b30ddc4156e62e
gd83-09-07d3t05.flac:0520a696512eb4d8a309418d21a6729b
gd83-09-07d3t06.flac:6c5a76a3b2f78fd36032e2526287b24f
gd83-09-07d3t07.flac:71590ad5027c5e43b17daabb2e25da65
gd83-09-07d3t08.flac:7711596e451d3376ced5593853e85b3e
flac-md5
53bab0dbec3e3c023b19e36c8ccf2e09 *gd83-09-07d1t01.flac
620eba0d8cd4ddcad4284f671e9f12a1 *gd83-09-07d1t02.flac
5923a02a30dc55ce82bf019e585dd797 *gd83-09-07d1t03.flac
38833b285d075164069d38bba1482077 *gd83-09-07d1t04.flac
311bd771b9d1ce4af934900eb8ae26a7 *gd83-09-07d1t05.flac
9f87445330c333bbfcbdc7860db8e43a *gd83-09-07d1t06.flac
5b4d36b7f44dad2e773d9512106530a4 *gd83-09-07d1t07.flac
ac2219a8c14781d4e2168520b8cc1c9f *gd83-09-07d1t08.flac
b25c4fe0ab51e9f74d735b2d6de55176 *gd83-09-07d1t09.flac
2b381a978b7076baf4dfb1097eadc6a2 *gd83-09-07d1t10.flac
32f9896524eb129f2cd4b387c12752e5 *gd83-09-07d2t01.flac
2afb943c0d967c893ec317bdea405a5f *gd83-09-07d2t02.flac
76cb72ee0a76ed475e76a0a14edb0ec1 *gd83-09-07d2t03.flac
0e341af29bcfecd2fadd80e29b8ca64d *gd83-09-07d2t04.flac
7a564ad2a6674cb1c41437de8b1f0f9b *gd83-09-07d3t01.flac
d03227651228d05bd1f032b389bd90f3 *gd83-09-07d3t02.flac
f6ddce33fe585d9595a73086f50a2492 *gd83-09-07d3t03.flac
127fb9449d37ac1dce27b2e72fcc20a8 *gd83-09-07d3t04.flac
1104e8efbb0ed2971a398b0b139b5ecc *gd83-09-07d3t05.flac
1a6ea999874ca61a532052588a9bfc6c *gd83-09-07d3t06.flac
274dcc5b66c97eac484126dc16cff85c *gd83-09-07d3t07.flac
75657a5834126f960cc903aaeee45239 *gd83-09-07d3t08.flac

Comments
Add Comment
Other Sources (comments)
3 Beyer Dynamics M160> Sony... (2) flac16; source: 2... (0) flac24; Nakamichi... (0) flac16; Recording... (0) flac16/44.1 Master:... (0) flac24/48 Master:... (0)
Date User Comment