Browse Collections Artists Sources   Search Dates

Add Show    List Management    Help


Grateful Dead 09/08/83
Red Rocks Amphitheatre, Morrison, CO
Comments Add Comment    Source Collectors    Add to Collection    Add to Want List    History
Source # 102053 Other Sources
Entered by Matt Vernon
Checksums flac-md5 , ffp
Disc Counts 0 / 0
Media Size
Date Circulated
Date Added
10/15/2009
10/15/2009
Source Summary flac16; Nakamichi CM-300 (CP-1) x2 > Cassette Master (Sony TCD5M/Maxell UDXLII C-90); Cassette Master (Nakamichi DR-1) > Korg MR-1000 (1-bit/5.6MHz) > Audiogate (1-bit/5.6MHz > 16-bit/44.1KHz) > cdwav (edits); Recorded by Bob Morris 
  Archive
Source Information - Download Text | Download Zip
Grateful Dead - September 8, 1983
Red Rocks Park - Morrison, Colorado
Nakamichi CM-300 (CP-1) x2 > Cassette Master
(Sony TCD5M/Maxell UDXLII C-90)

Cassette Master (Nakamichi DR-1) > Korg MR-1000 (1-bit/5.6MHz) >
Audiogate (1-bit/5.6MHz > 16-bit/44.1KHz) > cdwav (edits)

Disc One

Set 1:

01 tuning
02 Shakedown Street
03 Mama tried ->
04 Big River
05 Ramble On Rose
06 Hell in a Bucket
07 Brown-Eyed Women
08 Looks Like Rain ->
09 Deal

Disc Two

Set 2:

01 Scarlet Begonias ->
02 Fire on the Mountain

Encore:
03 It's All Over Now Baby Blue

Disc Three

2nd Set (cont)

01 Estimated Prophet ->
02 Terrapin ->
03 Drums ->
04 Space ->
05 Throwing Stones ->
06 Black Peter ->
07 Around & Around ->
08 Good Lovin'

Notes - Tape flips patched in Looks Like Rain (0:06-0:31)
and in Fire (12:38-12:51). Tape flip between Drums & Space.
Patch source: shnid 12482 Senn 441's? (Soundforge 9.0).
Recorded by Bob Morris -- thanks to Sam for help.
Transferred, edited & patched by Bob M 9/09.
Flaced and shared by Chuck T./Crazyfingers


shntool 3.0.4
Copyright (C) 2000-2007 Jason Jordan

   length     expanded size    cdr  WAVE problems  fmt   ratio  filename
    1:08.74       12169292 B   ---   --   ---xx   flac  0.4978  gd83-09-08d1t01.flac
   12:57.19      137107532 B   ---   --   ---xx   flac  0.5328  gd83-09-08d1t02.flac
    2:44.10       28953164 B   ---   --   ---xx   flac  0.5504  gd83-09-08d1t03.flac
    6:27.65       68419724 B   ---   --   ---xx   flac  0.5463  gd83-09-08d1t04.flac
    8:14.10       87165164 B   ---   --   ---xx   flac  0.5412  gd83-09-08d1t05.flac
    5:42.66       60484076 B   ---   --   ---xx   flac  0.5659  gd83-09-08d1t06.flac
    4:52.16       51546476 B   ---   --   ---xx   flac  0.5507  gd83-09-08d1t07.flac
    8:13.54       87092252 B   ---   --   ---xx   flac  0.5280  gd83-09-08d1t08.flac
    8:39.32       91626908 B   ---   --   ---xx   flac  0.5648  gd83-09-08d1t09.flac
   13:08.15      139038524 B   ---   --   ---xx   flac  0.5478  gd83-09-08d2t01.flac
   14:44.61      156081116 B   ---   --   ---xx   flac  0.5513  gd83-09-08d2t02.flac
    7:11.57       76162508 B   ---   --   ---xx   flac  0.5233  gd83-09-08d2t03.flac
   11:18.10      119622764 B   ---   --   ---xx   flac  0.5309  gd83-09-08d3t01.flac
   12:15.59      129792812 B   ---   --   ---xx   flac  0.5261  gd83-09-08d3t02.flac
    7:36.53       80563100 B   ---   --   ---xx   flac  0.4957  gd83-09-08d3t03.flac
   15:51.73      167928140 B   ---   --   ---xx   flac  0.4641  gd83-09-08d3t04.flac
    8:16.48       87607340 B   ---   --   ---xx   flac  0.5250  gd83-09-08d3t05.flac
    8:56.22       94602188 B   ---   --   ---xx   flac  0.5108  gd83-09-08d3t06.flac
    3:36.61       38245916 B   ---   --   ---xx   flac  0.5548  gd83-09-08d3t07.flac
    8:18.73       88018940 B   ---   --   ---xx   flac  0.5608  gd83-09-08d3t08.flac
  170:16.53     1802227936 B                            0.5308  (20 files)
Show Checksums
flac-md5
2ebe47dac9f53134f741a61ba9745d19 *gd83-09-08d1t01.flac
69c84587040afddd3a11a0ffaf173196 *gd83-09-08d1t02.flac
23c99d19817dcd4732c21536ca017eed *gd83-09-08d1t03.flac
57ce05f19a35da60e3e0210434bc77e5 *gd83-09-08d1t04.flac
1c0aed6eb231fc8b04be9cf9bded61f9 *gd83-09-08d1t05.flac
64ef63b34485556a92cf5772740bbd34 *gd83-09-08d1t06.flac
4856eb136fc083260d9d2f28c54173fb *gd83-09-08d1t07.flac
173dfae0e1eb8b44a978bf0d0fe13444 *gd83-09-08d1t08.flac
369831a5aa7adeb44e78714672d8dda5 *gd83-09-08d1t09.flac
c2f72307c283294cad61e71e344d4c5f *gd83-09-08d2t01.flac
c0212c2a54b8d6db27f1752fc05cf40a *gd83-09-08d2t02.flac
4186606a961b82697414048ec9b46bce *gd83-09-08d2t03.flac
35a982a9441480a74b8cf8a36819ea1c *gd83-09-08d3t01.flac
5faade9e50ffa0c030fbf7e909a7d7e2 *gd83-09-08d3t02.flac
61df8340d76c18a397aede48853fb94c *gd83-09-08d3t03.flac
01966024a20489ee2f772a5b8c090ebb *gd83-09-08d3t04.flac
08595ed8b9e4dffd7023c5a58b148c26 *gd83-09-08d3t05.flac
a039122bd97474e296e8439396f7b5be *gd83-09-08d3t06.flac
51451f163bf223947037c4db2df31f8c *gd83-09-08d3t07.flac
767c76611e5bdb2795ad09eb53b8a9d9 *gd83-09-08d3t08.flac
ffp
gd83-09-08d1t01.flac:a25790f2885b97030926ea3c70b67bbb
gd83-09-08d1t02.flac:5985f69eb647af5957b6c6dd37f394bd
gd83-09-08d1t03.flac:fe025ed17fb2d058772b2d684c14c3fa
gd83-09-08d1t04.flac:78046ed4ed4e0b1b2d1ea94a021d88f3
gd83-09-08d1t05.flac:5bf0f0118862d1b8f0c6620088f106f4
gd83-09-08d1t06.flac:111c1537ea8d0b36db4f229b04e0aba3
gd83-09-08d1t07.flac:cdc02217617d1edd0e0d2f07557f3922
gd83-09-08d1t08.flac:0e80e41b381ba4404ee24b7ed8d53628
gd83-09-08d1t09.flac:b0fab749e31732b4f871d8f7b46ce45e
gd83-09-08d2t01.flac:efc42bccbc073ad8896d927ff9a630f0
gd83-09-08d2t02.flac:1c3b6e6b044fb4ef47062bf900e7c4e0
gd83-09-08d2t03.flac:d879cd0ea17b3c0439e398101cfed459
gd83-09-08d3t01.flac:0b7a2c3d0e29874d49aeabc29f97f1ee
gd83-09-08d3t02.flac:3dd85376ede83931e6404d91bd67a745
gd83-09-08d3t03.flac:54817986d5cb8017c69c6cfcb6c2b7df
gd83-09-08d3t04.flac:644704c57250e55246f66e30b0c9ca35
gd83-09-08d3t05.flac:fca802684a4865e2946ea38b33efa4e8
gd83-09-08d3t06.flac:296dbb05282b82dc1a5a8f2544caee6a
gd83-09-08d3t07.flac:059cd8703a0d668df36c27de6efb8dc2
gd83-09-08d3t08.flac:fc7b3f19b3deb7e9b464f39b98b0ffc7

Comments
Add Comment
Other Sources (comments)
AUD (Senn. 441's)> MC> DAT>... (1) Lineage: MSC>Reel>DAT>CDR... (2) flac16; Source:... (0) flac16; SOURCES: Set... (0) flac24; Nakamichi... (0) flac16; source: 2... (0) flac16; Recording... (0) flac16/44.1 ... (0) flac24/48 Master:... (0)
Date User Comment